  0
SECTION
  2
HEADER
  9
$ACADVER
  1
AC1015
  9
$ACADMAINTVER
 70
     6
  9
$DWGCODEPAGE
  3
ANSI_1252
  9
$INSBASE
 10
0.0
 20
0.0
 30
0.0
  9
$EXTMIN
 10
0.0
 20
0.0
 30
0.0
  9
$EXTMAX
 10
105.0000000000001
 20
148.5000000000001
 30
0.0
  9
$LIMMIN
 10
0.0
 20
0.0
  9
$LIMMAX
 10
12.0
 20
9.0
  9
$ORTHOMODE
 70
     0
  9
$REGENMODE
 70
     1
  9
$FILLMODE
 70
     1
  9
$QTEXTMODE
 70
     0
  9
$MIRRTEXT
 70
     1
  9
$LTSCALE
 40
1.0
  9
$ATTMODE
 70
     1
  9
$TEXTSIZE
 40
0.2
  9
$TRACEWID
 40
0.05
  9
$TEXTSTYLE
  7
Standard
  9
$CLAYER
  8
0
  9
$CELTYPE
  6
ByLayer
  9
$CECOLOR
 62
   256
  9
$CELTSCALE
 40
1.0
  9
$DISPSILH
 70
     0
  9
$DIMSCALE
 40
1.0
  9
$DIMASZ
 40
0.18
  9
$DIMEXO
 40
0.0625
  9
$DIMDLI
 40
0.38
  9
$DIMRND
 40
0.0
  9
$DIMDLE
 40
0.0
  9
$DIMEXE
 40
0.18
  9
$DIMTP
 40
0.0
  9
$DIMTM
 40
0.0
  9
$DIMTXT
 40
0.18
  9
$DIMCEN
 40
0.09
  9
$DIMTSZ
 40
0.0
  9
$DIMTOL
 70
     0
  9
$DIMLIM
 70
     0
  9
$DIMTIH
 70
     1
  9
$DIMTOH
 70
     1
  9
$DIMSE1
 70
     0
  9
$DIMSE2
 70
     0
  9
$DIMTAD
 70
     0
  9
$DIMZIN
 70
     0
  9
$DIMBLK
  1

  9
$DIMASO
 70
     1
  9
$DIMSHO
 70
     1
  9
$DIMPOST
  1

  9
$DIMAPOST
  1

  9
$DIMALT
 70
     0
  9
$DIMALTD
 70
     2
  9
$DIMALTF
 40
25.4
  9
$DIMLFAC
 40
1.0
  9
$DIMTOFL
 70
     0
  9
$DIMTVP
 40
0.0
  9
$DIMTIX
 70
     0
  9
$DIMSOXD
 70
     0
  9
$DIMSAH
 70
     0
  9
$DIMBLK1
  1

  9
$DIMBLK2
  1

  9
$DIMSTYLE
  2
Standard
  9
$DIMCLRD
 70
     0
  9
$DIMCLRE
 70
     0
  9
$DIMCLRT
 70
     0
  9
$DIMTFAC
 40
1.0
  9
$DIMGAP
 40
0.09
  9
$DIMJUST
 70
     0
  9
$DIMSD1
 70
     0
  9
$DIMSD2
 70
     0
  9
$DIMTOLJ
 70
     1
  9
$DIMTZIN
 70
     0
  9
$DIMALTZ
 70
     0
  9
$DIMALTTZ
 70
     0
  9
$DIMUPT
 70
     0
  9
$DIMDEC
 70
     4
  9
$DIMTDEC
 70
     4
  9
$DIMALTU
 70
     2
  9
$DIMALTTD
 70
     2
  9
$DIMTXSTY
  7
Standard
  9
$DIMAUNIT
 70
     0
  9
$DIMADEC
 70
     0
  9
$DIMALTRND
 40
0.0
  9
$DIMAZIN
 70
     0
  9
$DIMDSEP
 70
    46
  9
$DIMATFIT
 70
     3
  9
$DIMFRAC
 70
     0
  9
$DIMLDRBLK
  1

  9
$DIMLUNIT
 70
     2
  9
$DIMLWD
 70
    -2
  9
$DIMLWE
 70
    -2
  9
$DIMTMOVE
 70
     0
  9
$LUNITS
 70
     2
  9
$LUPREC
 70
     4
  9
$SKETCHINC
 40
0.1
  9
$FILLETRAD
 40
0.5
  9
$AUNITS
 70
     0
  9
$AUPREC
 70
     0
  9
$MENU
  1
.
  9
$ELEVATION
 40
0.0
  9
$PELEVATION
 40
0.0
  9
$THICKNESS
 40
0.0
  9
$LIMCHECK
 70
     0
  9
$CHAMFERA
 40
0.5
  9
$CHAMFERB
 40
0.5
  9
$CHAMFERC
 40
1.0
  9
$CHAMFERD
 40
0.0
  9
$SKPOLY
 70
     0
  9
$TDCREATE
 40
2456958.392969132
  9
$TDUCREATE
 40
2456958.351302465
  9
$TDUPDATE
 40
2456958.392969491
  9
$TDUUPDATE
 40
2456958.351302824
  9
$TDINDWG
 40
0.0000000116
  9
$TDUSRTIMER
 40
0.0000000116
  9
$USRTIMER
 70
     1
  9
$ANGBASE
 50
0.0
  9
$ANGDIR
 70
     0
  9
$PDMODE
 70
     0
  9
$PDSIZE
 40
0.0
  9
$PLINEWID
 40
0.0
  9
$SPLFRAME
 70
     0
  9
$SPLINETYPE
 70
     6
  9
$SPLINESEGS
 70
     8
  9
$HANDSEED
  5
4B8
  9
$SURFTAB1
 70
     6
  9
$SURFTAB2
 70
     6
  9
$SURFTYPE
 70
     6
  9
$SURFU
 70
     6
  9
$SURFV
 70
     6
  9
$UCSBASE
  2

  9
$UCSNAME
  2

  9
$UCSORG
 10
0.0
 20
0.0
 30
0.0
  9
$UCSXDIR
 10
1.0
 20
0.0
 30
0.0
  9
$UCSYDIR
 10
0.0
 20
1.0
 30
0.0
  9
$UCSORTHOREF
  2

  9
$UCSORTHOVIEW
 70
     0
  9
$UCSORGTOP
 10
0.0
 20
0.0
 30
0.0
  9
$UCSORGBOTTOM
 10
0.0
 20
0.0
 30
0.0
  9
$UCSORGLEFT
 10
0.0
 20
0.0
 30
0.0
  9
$UCSORGRIGHT
 10
0.0
 20
0.0
 30
0.0
  9
$UCSORGFRONT
 10
0.0
 20
0.0
 30
0.0
  9
$UCSORGBACK
 10
0.0
 20
0.0
 30
0.0
  9
$PUCSBASE
  2

  9
$PUCSNAME
  2

  9
$PUCSORG
 10
0.0
 20
0.0
 30
0.0
  9
$PUCSXDIR
 10
1.0
 20
0.0
 30
0.0
  9
$PUCSYDIR
 10
0.0
 20
1.0
 30
0.0
  9
$PUCSORTHOREF
  2

  9
$PUCSORTHOVIEW
 70
     0
  9
$PUCSORGTOP
 10
0.0
 20
0.0
 30
0.0
  9
$PUCSORGBOTTOM
 10
0.0
 20
0.0
 30
0.0
  9
$PUCSORGLEFT
 10
0.0
 20
0.0
 30
0.0
  9
$PUCSORGRIGHT
 10
0.0
 20
0.0
 30
0.0
  9
$PUCSORGFRONT
 10
0.0
 20
0.0
 30
0.0
  9
$PUCSORGBACK
 10
0.0
 20
0.0
 30
0.0
  9
$USERI1
 70
     0
  9
$USERI2
 70
     0
  9
$USERI3
 70
     0
  9
$USERI4
 70
     0
  9
$USERI5
 70
     0
  9
$USERR1
 40
18.1
  9
$USERR2
 40
0.0
  9
$USERR3
 40
0.0
  9
$USERR4
 40
0.0
  9
$USERR5
 40
0.0
  9
$WORLDVIEW
 70
     1
  9
$SHADEDGE
 70
     3
  9
$SHADEDIF
 70
    70
  9
$TILEMODE
 70
     1
  9
$MAXACTVP
 70
    64
  9
$PINSBASE
 10
0.0
 20
0.0
 30
0.0
  9
$PLIMCHECK
 70
     0
  9
$PEXTMIN
 10
1.00000000000000E+20
 20
1.00000000000000E+20
 30
1.00000000000000E+20
  9
$PEXTMAX
 10
-1.00000000000000E+20
 20
-1.00000000000000E+20
 30
-1.00000000000000E+20
  9
$PLIMMIN
 10
0.0
 20
0.0
  9
$PLIMMAX
 10
12.0
 20
9.0
  9
$UNITMODE
 70
     0
  9
$VISRETAIN
 70
     1
  9
$PLINEGEN
 70
     0
  9
$PSLTSCALE
 70
     1
  9
$TREEDEPTH
 70
  3020
  9
$CMLSTYLE
  2
Standard
  9
$CMLJUST
 70
     0
  9
$CMLSCALE
 40
1.0
  9
$PROXYGRAPHICS
 70
     1
  9
$MEASUREMENT
 70
     1
  9
$CELWEIGHT
370
    -1
  9
$ENDCAPS
280
     0
  9
$JOINSTYLE
280
     0
  9
$LWDISPLAY
290
     0
  9
$INSUNITS
 70
     4
  9
$HYPERLINKBASE
  1

  9
$STYLESHEET
  1

  9
$XEDIT
290
     1
  9
$CEPSNTYPE
380
     0
  9
$PSTYLEMODE
290
     1
  9
$FINGERPRINTGUID
  2
{2DB1A115-EB32-4A71-B43B-E21FFD04B869}
  9
$VERSIONGUID
  2
{FAEB1C32-E019-11D5-929B-00C0DF256EC4}
  9
$EXTNAMES
290
     1
  9
$PSVPSCALE
 40
0.0
  9
$OLESTARTUP
290
     0
  0
ENDSEC
  0
SECTION
  2
CLASSES
  0
CLASS
  1
ACDBDICTIONARYWDFLT
  2
AcDbDictionaryWithDefault
  3
ObjectDBX Classes
 90
        0
280
     0
281
     0
  0
CLASS
  1
VISUALSTYLE
  2
AcDbVisualStyle
  3
ObjectDBX Classes
 90
     4095
280
     0
281
     0
  0
CLASS
  1
MATERIAL
  2
AcDbMaterial
  3
ObjectDBX Classes
 90
     1153
280
     0
281
     0
  0
CLASS
  1
DICTIONARYVAR
  2
AcDbDictionaryVar
  3
ObjectDBX Classes
 90
        0
280
     0
281
     0
  0
CLASS
  1
ACDBPLACEHOLDER
  2
AcDbPlaceHolder
  3
ObjectDBX Classes
 90
        0
280
     0
281
     0
  0
CLASS
  1
LAYOUT
  2
AcDbLayout
  3
ObjectDBX Classes
 90
        0
280
     0
281
     0
  0
ENDSEC
  0
SECTION
  2
TABLES
  0
TABLE
  2
VPORT
  5
8
330
0
100
AcDbSymbolTable
 70
     1
  0
VPORT
  5
29
330
8
100
AcDbSymbolTableRecord
100
AcDbViewportTableRecord
  2
*Active
 70
     0
 10
0.0
 20
0.0
 11
1.0
 21
1.0
 12
52.50000000000005
 22
74.25000000000006
 13
0.0
 23
0.0
 14
0.5
 24
0.5
 15
0.5
 25
0.5
 16
0.0
 26
0.0
 36
1.0
 17
0.0
 27
0.0
 37
0.0
 40
163.3500000000001
 41
1.60267857142857
 42
50.0
 43
0.0
 44
0.0
 50
0.0
 51
0.0
 71
     0
 72
   100
 73
     1
 74
     3
 75
     0
 76
     0
 77
     0
 78
     0
281
     0
 65
     1
110
0.0
120
0.0
130
0.0
111
1.0
121
0.0
131
0.0
112
0.0
122
1.0
132
0.0
 79
     0
146
0.0
  0
ENDTAB
  0
TABLE
  2
LTYPE
  5
5
330
0
100
AcDbSymbolTable
 70
     8
  0
LTYPE
  5
14
330
5
100
AcDbSymbolTableRecord
100
AcDbLinetypeTableRecord
  2
ByBlock
 70
     0
  3

 72
    65
 73
     0
 40
0.0
  0
LTYPE
  5
15
330
5
100
AcDbSymbolTableRecord
100
AcDbLinetypeTableRecord
  2
ByLayer
 70
     0
  3

 72
    65
 73
     0
 40
0.0
  0
LTYPE
  5
16
330
5
100
AcDbSymbolTableRecord
100
AcDbLinetypeTableRecord
  2
Continuous
 70
     0
  3
Solid line
 72
    65
 73
     0
 40
0.0
  0
LTYPE
  5
3F
330
5
100
AcDbSymbolTableRecord
100
AcDbLinetypeTableRecord
  2
DASHED
 70
     0
  3
Dashed
 72
    65
 73
     2
 40
15.0
 49
7.0
 74
     0
 49
-8.0
 74
     0
  0
LTYPE
  5
40
330
5
100
AcDbSymbolTableRecord
100
AcDbLinetypeTableRecord
  2
DOTTED
 70
     0
  3
Dotted
 72
    65
 73
     2
 40
1.0
 49
0.0
 74
     0
 49
-1.0
 74
     0
  0
LTYPE
  5
41
330
5
100
AcDbSymbolTableRecord
100
AcDbLinetypeTableRecord
  2
DOT_CENTER
 70
     0
  3
Dot_Center
 72
    65
 73
     4
 40
14.0
 49
12.0
 74
     0
 49
-1.0
 74
     0
 49
0.0
 74
     0
 49
-1.0
 74
     0
  0
LTYPE
  5
42
330
5
100
AcDbSymbolTableRecord
100
AcDbLinetypeTableRecord
  2
LONG_DASHED
 70
     0
  3
Long_Dashed
 72
    65
 73
     2
 40
15.0
 49
10.0
 74
     0
 49
-5.0
 74
     0
  0
LTYPE
  5
43
330
5
100
AcDbSymbolTableRecord
100
AcDbLinetypeTableRecord
  2
DASH_CENTER
 70
     0
  3
Dash_Center
 72
    65
 73
     4
 40
14.0
 49
11.0
 74
     0
 49
-1.0
 74
     0
 49
1.0
 74
     0
 49
-1.0
 74
     0
  0
LTYPE
  5
44
330
5
100
AcDbSymbolTableRecord
100
AcDbLinetypeTableRecord
  2
PHANTOM
 70
     0
  3
Phantom
 72
    65
 73
     6
 40
13.0
 49
10.0
 74
     0
 49
-1.0
 74
     0
 49
0.0
 74
     0
 49
-1.0
 74
     0
 49
0.0
 74
     0
 49
-1.0
 74
     0
  0
LTYPE
  5
45
330
5
100
AcDbSymbolTableRecord
100
AcDbLinetypeTableRecord
  2
CENTER_DASH_DASH
 70
     0
  3
Center_Dash_Dash
 72
    65
 73
     6
 40
14.0
 49
9.0
 74
     0
 49
-1.0
 74
     0
 49
1.0
 74
     0
 49
-1.0
 74
     0
 49
1.0
 74
     0
 49
-1.0
 74
     0
  0
ENDTAB
  0
TABLE
  2
LAYER
  5
2
330
0
100
AcDbSymbolTable
 70
     2
  0
LAYER
  5
10
330
2
100
AcDbSymbolTableRecord
100
AcDbLayerTableRecord
  2
0
 70
     0
 62
     7
  6
Continuous
370
    -3
390
F
  0
LAYER
  5
46
330
2
100
AcDbSymbolTableRecord
100
AcDbLayerTableRecord
  2
1
 70
     0
 62
     7
  6
Continuous
370
    -3
390
F
  0
ENDTAB
  0
TABLE
  2
STYLE
  5
3
330
0
100
AcDbSymbolTable
 70
     4
  0
STYLE
  5
11
330
3
100
AcDbSymbolTableRecord
100
AcDbTextStyleTableRecord
  2
Standard
 70
     0
 40
0.0
 41
1.0
 50
0.0
 71
     0
 42
0.2
  3
txt
  4

  0
STYLE
  5
45B
330
3
100
AcDbSymbolTableRecord
100
AcDbTextStyleTableRecord
  2
CONVERTER_11
 70
     0
 40
0.0
 41
1.38
 50
0.0
 71
     0
 42
0.2
  3
ARIAL.TTF
  4

  0
STYLE
  5
45D
330
3
100
AcDbSymbolTableRecord
100
AcDbTextStyleTableRecord
  2
CONVERTER_12
 70
     0
 40
0.0
 41
1.2
 50
0.0
 71
     0
 42
0.2
  3
ARIAL.TTF
  4

  0
STYLE
  5
462
330
3
100
AcDbSymbolTableRecord
100
AcDbTextStyleTableRecord
  2
CONVERTER_13
 70
     0
 40
0.0
 41
0.95
 50
0.0
 71
     0
 42
0.2
  3
simplex.shx
  4

  0
ENDTAB
  0
TABLE
  2
VIEW
  5
6
330
0
100
AcDbSymbolTable
 70
     0
  0
ENDTAB
  0
TABLE
  2
UCS
  5
7
330
0
100
AcDbSymbolTable
 70
     0
  0
ENDTAB
  0
TABLE
  2
APPID
  5
9
330
0
100
AcDbSymbolTable
 70
     1
  0
APPID
  5
12
330
9
100
AcDbSymbolTableRecord
100
AcDbRegAppTableRecord
  2
ACAD
 70
     0
  0
ENDTAB
  0
TABLE
  2
DIMSTYLE
  5
A
330
0
100
AcDbSymbolTable
 70
     4
100
AcDbDimStyleTable
  0
DIMSTYLE
105
27
330
A
100
AcDbSymbolTableRecord
100
AcDbDimStyleTableRecord
  2
Standard
 70
     0
178
     0
340
11
  0
DIMSTYLE
105
471
102
{ACAD_REACTORS
330
472
102
}
330
A
100
AcDbSymbolTableRecord
100
AcDbDimStyleTableRecord
  2
ME10_DIM_10
 70
     0
 41
1.5
 42
0.25
 44
0.5
 73
     0
 74
     0
 77
     1
 78
     8
140
1.5
147
1.0
172
     1
173
     1
174
     1
175
     1
176
     7
177
     7
271
     2
178
     7
271
     2
340
462
  0
DIMSTYLE
105
47C
102
{ACAD_REACTORS
330
47D
102
}
330
A
100
AcDbSymbolTableRecord
100
AcDbDimStyleTableRecord
  2
ME10_DIM_11
 70
     0
 41
1.5
 42
0.25
 44
0.5
 73
     0
 74
     0
 77
     1
 78
     8
140
1.5
147
1.0
172
     1
173
     1
174
     1
175
     1
176
     7
177
     7
271
     2
178
     7
271
     2
340
462
  0
DIMSTYLE
105
487
102
{ACAD_REACTORS
330
488
102
}
330
A
100
AcDbSymbolTableRecord
100
AcDbDimStyleTableRecord
  2
ME10_DIM_12
 70
     0
 41
1.5
 42
0.25
 44
0.5
 73
     0
 74
     0
 77
     1
 78
     8
140
1.5
147
1.0
172
     1
173
     1
174
     1
175
     1
176
     7
177
     7
271
     2
178
     7
271
     2
340
462
  0
ENDTAB
  0
TABLE
  2
BLOCK_RECORD
  5
1
330
0
100
AcDbSymbolTable
 70
     5
  0
BLOCK_RECORD
  5
1F
330
1
100
AcDbSymbolTableRecord
100
AcDbBlockTableRecord
  2
*Model_Space
340
22
  0
BLOCK_RECORD
  5
1B
330
1
100
AcDbSymbolTableRecord
100
AcDbBlockTableRecord
  2
*Paper_Space
340
1E
  0
BLOCK_RECORD
  5
23
330
1
100
AcDbSymbolTableRecord
100
AcDbBlockTableRecord
  2
*Paper_Space0
340
26
  0
BLOCK_RECORD
  5
47
330
1
100
AcDbSymbolTableRecord
100
AcDbBlockTableRecord
  2
_dummy_frame
340
0
102
{BLKREFS
331
4A
102
}
  0
BLOCK_RECORD
  5
468
330
1
100
AcDbSymbolTableRecord
100
AcDbBlockTableRecord
  2
*D2
340
0
  0
BLOCK_RECORD
  5
473
330
1
100
AcDbSymbolTableRecord
100
AcDbBlockTableRecord
  2
*D3
340
0
  0
BLOCK_RECORD
  5
47E
330
1
100
AcDbSymbolTableRecord
100
AcDbBlockTableRecord
  2
*D4
340
0
  0
ENDTAB
  0
ENDSEC
  0
SECTION
  2
BLOCKS
  0
BLOCK
  5
20
330
1F
100
AcDbEntity
  8
0
100
AcDbBlockBegin
  2
*Model_Space
 70
     0
 10
0.0
 20
0.0
 30
0.0
  3
*Model_Space
  1

  0
ENDBLK
  5
21
330
1F
100
AcDbEntity
  8
0
100
AcDbBlockEnd
  0
BLOCK
  5
1C
330
1B
100
AcDbEntity
 67
     1
  8
0
100
AcDbBlockBegin
  2
*Paper_Space
 70
     0
 10
0.0
 20
0.0
 30
0.0
  3
*Paper_Space
  1

  0
ENDBLK
  5
1D
330
1B
100
AcDbEntity
 67
     1
  8
0
100
AcDbBlockEnd
  0
BLOCK
  5
24
330
23
100
AcDbEntity
  8
0
100
AcDbBlockBegin
  2
*Paper_Space0
 70
     0
 10
0.0
 20
0.0
 30
0.0
  3
*Paper_Space0
  1

  0
ENDBLK
  5
25
330
23
100
AcDbEntity
  8
0
100
AcDbBlockEnd
  0
BLOCK
  5
48
330
47
100
AcDbEntity
  8
0
100
AcDbBlockBegin
  2
_dummy_frame
 70
     0
 10
83.1182412299704
 20
20.0
 30
0.0
  3
_dummy_frame
  1

  0
POINT
  5
4B
330
47
100
AcDbEntity
  8
1
 62
     7
 60
     1
100
AcDbPoint
 10
83.1182412299704
 20
20.0
 30
0.0
  0
ENDBLK
  5
49
330
47
100
AcDbEntity
  8
0
100
AcDbBlockEnd
  0
BLOCK
  5
46F
330
468
100
AcDbEntity
  8
0
100
AcDbBlockBegin
  2
*D2
 70
     1
 10
0.0
 20
0.0
 30
0.0
  3
*D2
  1

  0
LINE
  5
469
330
468
100
AcDbEntity
  8
1
  6
Continuous
 62
     7
100
AcDbLine
 10
22.9182404677623
 20
96.97229626112944
 30
0.0
 11
22.9182404677623
 21
65.47229626112942
 31
0.0
  0
LINE
  5
46A
330
468
100
AcDbEntity
  8
1
  6
Continuous
 62
     7
100
AcDbLine
 10
32.54243893094117
 20
65.47229626112942
 30
0.0
 11
22.4182404677623
 21
65.47229626112942
 31
0.0
  0
LINE
  5
46B
330
468
100
AcDbEntity
  8
1
  6
Continuous
 62
     7
100
AcDbLine
 10
29.54243893094111
 20
96.97229626112944
 30
0.0
 11
22.4182404677623
 21
96.97229626112944
 31
0.0
  0
SOLID
  5
46C
330
468
100
AcDbEntity
  8
1
 62
     7
100
AcDbTrace
 10
23.11571921414339
 20
95.47229626112944
 30
0.0
 11
22.7207617213812
 21
95.47229626112944
 31
0.0
 12
22.9182404677623
 22
96.97229626112944
 32
0.0
 13
22.9182404677623
 23
96.97229626112944
 33
0.0
  0
SOLID
  5
46D
330
468
100
AcDbEntity
  8
1
 62
     7
100
AcDbTrace
 10
22.7207617213812
 20
66.97229626112942
 30
0.0
 11
23.11571921414339
 21
66.97229626112942
 31
0.0
 12
22.9182404677623
 22
65.47229626112942
 32
0.0
 13
22.9182404677623
 23
65.47229626112942
 33
0.0
  0
MTEXT
  5
46E
330
468
100
AcDbEntity
  8
1
 62
     7
100
AcDbMText
 10
21.7682404677623
 20
79.38479626112942
 30
0.0
 40
1.5
 41
0.0
 71
     7
 72
     1
  1
31,5
  7
CONVERTER_13
 11
0.0
 21
1.0
 31
0.0
 73
     1
 44
0.60024009603842
  0
ENDBLK
  5
470
330
468
100
AcDbEntity
  8
0
100
AcDbBlockEnd
  0
BLOCK
  5
47A
330
473
100
AcDbEntity
  8
0
100
AcDbBlockBegin
  2
*D3
 70
     1
 10
0.0
 20
0.0
 30
0.0
  3
*D3
  1

  0
LINE
  5
474
330
473
100
AcDbEntity
  8
1
  6
Continuous
 62
     7
100
AcDbLine
 10
29.79243893094112
 20
102.4
 30
0.0
 11
50.79243893094106
 21
102.4
 31
0.0
  0
LINE
  5
475
330
473
100
AcDbEntity
  8
1
  6
Continuous
 62
     7
100
AcDbLine
 10
50.79243893094106
 20
97.22229626112944
 30
0.0
 11
50.79243893094106
 21
102.9
 31
0.0
  0
LINE
  5
476
330
473
100
AcDbEntity
  8
1
  6
Continuous
 62
     7
100
AcDbLine
 10
29.79243893094112
 20
97.22229626112944
 30
0.0
 11
29.79243893094112
 21
102.9
 31
0.0
  0
SOLID
  5
477
330
473
100
AcDbEntity
  8
1
 62
     7
100
AcDbTrace
 10
31.29243893094112
 20
102.5974787463811
 30
0.0
 11
31.29243893094112
 21
102.2025212536189
 31
0.0
 12
29.79243893094112
 22
102.4
 32
0.0
 13
29.79243893094112
 23
102.4
 33
0.0
  0
SOLID
  5
478
330
473
100
AcDbEntity
  8
1
 62
     7
100
AcDbTrace
 10
49.29243893094106
 20
102.2025212536189
 30
0.0
 11
49.29243893094106
 21
102.5974787463811
 31
0.0
 12
50.79243893094106
 22
102.4
 32
0.0
 13
50.79243893094106
 23
102.4
 33
0.0
  0
MTEXT
  5
479
330
473
100
AcDbEntity
  8
1
 62
     7
100
AcDbMText
 10
39.39243893094109
 20
103.4
 30
0.0
 40
1.5
 41
0.0
 71
     7
 72
     1
  1
21
  7
CONVERTER_13
 11
0.9999999999970619
 21
2.424068405545306E-6
 31
0.0
 73
     1
 44
0.60024009603842
  0
ENDBLK
  5
47B
330
473
100
AcDbEntity
  8
0
100
AcDbBlockEnd
  0
BLOCK
  5
485
330
47E
100
AcDbEntity
  8
0
100
AcDbBlockBegin
  2
*D4
 70
     1
 10
0.0
 20
0.0
 30
0.0
  3
*D4
  1

  0
LINE
  5
47F
330
47E
100
AcDbEntity
  8
1
  6
Continuous
 62
     7
100
AcDbLine
 10
90.09243926996362
 20
102.4
 30
0.0
 11
69.09243926996373
 21
102.4
 31
0.0
  0
LINE
  5
480
330
47E
100
AcDbEntity
  8
1
  6
Continuous
 62
     7
100
AcDbLine
 10
69.09243926996373
 20
97.22229626112933
 30
0.0
 11
69.09243926996373
 21
102.9
 31
0.0
  0
LINE
  5
481
330
47E
100
AcDbEntity
  8
1
  6
Continuous
 62
     7
100
AcDbLine
 10
90.09243926996362
 20
97.22229626112933
 30
0.0
 11
90.09243926996362
 21
102.9
 31
0.0
  0
SOLID
  5
482
330
47E
100
AcDbEntity
  8
1
 62
     7
100
AcDbTrace
 10
88.59243926996362
 20
102.2025212536189
 30
0.0
 11
88.59243926996362
 21
102.5974787463811
 31
0.0
 12
90.09243926996362
 22
102.4
 32
0.0
 13
90.09243926996362
 23
102.4
 33
0.0
  0
SOLID
  5
483
330
47E
100
AcDbEntity
  8
1
 62
     7
100
AcDbTrace
 10
70.59243926996373
 20
102.5974787463811
 30
0.0
 11
70.59243926996373
 21
102.2025212536189
 31
0.0
 12
69.09243926996373
 22
102.4
 32
0.0
 13
69.09243926996373
 23
102.4
 33
0.0
  0
MTEXT
  5
484
330
47E
100
AcDbEntity
  8
1
 62
     7
100
AcDbMText
 10
78.69243926996367
 20
103.4
 30
0.0
 40
1.5
 41
0.0
 71
     7
 72
     1
  1
21
  7
CONVERTER_13
 11
0.9999999999970619
 21
2.424068405545306E-6
 31
0.0
 73
     1
 44
0.60024009603842
  0
ENDBLK
  5
486
330
47E
100
AcDbEntity
  8
0
100
AcDbBlockEnd
  0
ENDSEC
  0
SECTION
  2
ENTITIES
  0
INSERT
  5
4A
330
1F
100
AcDbEntity
  8
1
100
AcDbBlockReference
  2
_dummy_frame
 10
83.1182412299704
 20
20.0
 30
0.0
  0
LINE
  5
4C
330
1F
100
AcDbEntity
  8
1
  6
Continuous
 62
     7
100
AcDbLine
 10
10.50000000000006
 20
7.49999999999994
 30
0.0
 11
25.50000000000005
 21
7.49999999999994
 31
0.0
  0
LINE
  5
4D
330
1F
100
AcDbEntity
  8
1
  6
Continuous
 62
     7
100
AcDbLine
 10
10.50000000000006
 20
10.0
 30
0.0
 11
10.50000000000006
 21
2.49999999999994
 31
0.0
  0
LINE
  5
4E
330
1F
100
AcDbEntity
  8
1
  6
Continuous
 62
     7
100
AcDbLine
 10
80.50000000000006
 20
10.0
 30
0.0
 11
80.50000000000006
 21
2.5
 31
0.0
  0
LINE
  5
4F
330
1F
100
AcDbEntity
  8
1
  6
Continuous
 62
     7
100
AcDbLine
 10
89.17630068874276
 20
10.0
 30
0.0
 11
89.17630068874276
 21
2.5
 31
0.0
  0
LINE
  5
50
330
1F
100
AcDbEntity
  8
1
  6
Continuous
 62
     7
100
AcDbLine
 10
25.50000000000005
 20
10.0
 30
0.0
 11
25.50000000000005
 21
2.5
 31
0.0
  0
LINE
  5
51
330
1F
100
AcDbEntity
  8
1
  6
Continuous
 62
     7
100
AcDbLine
 10
10.50000000000006
 20
4.99999999999993
 30
0.0
 11
25.50000000000005
 21
4.99999999999993
 31
0.0
  0
LINE
  5
52
330
1F
100
AcDbEntity
  8
1
  6
Continuous
 62
     7
100
AcDbLine
 10
0.0
 20
74.2499999999999
 30
0.0
 11
7.5
 21
74.2499999999999
 31
0.0
  0
LINE
  5
53
330
1F
100
AcDbEntity
  8
1
  6
Continuous
 62
     7
100
AcDbLine
 10
105.0000000000001
 20
0.0
 30
0.0
 11
105.0000000000001
 21
148.5000000000001
 31
0.0
  0
LINE
  5
54
330
1F
100
AcDbEntity
  8
1
  6
Continuous
 62
     7
100
AcDbLine
 10
0.0
 20
0.0
 30
0.0
 11
105.0000000000001
 21
0.0
 31
0.0
  0
LINE
  5
55
330
1F
100
AcDbEntity
  8
1
  6
Continuous
 62
     7
100
AcDbLine
 10
0.0
 20
148.4999999999998
 30
0.0
 11
0.0
 21
0.0
 31
0.0
  0
LINE
  5
56
330
1F
100
AcDbEntity
  8
1
  6
Continuous
 62
     7
100
AcDbLine
 10
105.0000000000001
 20
148.5000000000001
 30
0.0
 11
0.0
 21
148.4999999999998
 31
0.0
  0
LINE
  5
57
330
1F
100
AcDbEntity
  8
1
  6
Continuous
 62
     7
100
AcDbLine
 10
102.5000000000001
 20
2.49999999999994
 30
0.0
 11
102.5000000000001
 21
146.0000000000001
 31
0.0
  0
LINE
  5
58
330
1F
100
AcDbEntity
  8
1
  6
Continuous
 62
     7
100
AcDbLine
 10
102.5000000000001
 20
146.0000000000001
 30
0.0
 11
10.50000000000006
 21
146.0000000000001
 31
0.0
  0
LINE
  5
59
330
1F
100
AcDbEntity
  8
1
  6
Continuous
 62
     7
100
AcDbLine
 10
10.50000000000006
 20
146.0000000000001
 30
0.0
 11
10.50000000000006
 21
2.49999999999994
 31
0.0
  0
LINE
  5
5A
102
{ACAD_REACTORS
330
48C
102
}
330
1F
100
AcDbEntity
  8
1
  6
Continuous
 62
     7
100
AcDbLine
 10
97.0048170110381
 20
5.03874991991631
 30
0.0
 11
97.0048170110381
 21
7.46125008008369
 31
0.0
  0
LINE
  5
5B
102
{ACAD_REACTORS
330
489
102
}
330
1F
100
AcDbEntity
  8
1
  6
Continuous
 62
     7
100
AcDbLine
 10
96.3381503443714
 20
6.25
 30
0.0
 11
96.3381503443714
 21
7.11602540378442
 31
0.0
  0
LINE
  5
5C
102
{ACAD_REACTORS
330
489
102
}
330
1F
100
AcDbEntity
  8
1
  6
Continuous
 62
     7
100
AcDbLine
 10
96.3381503443714
 20
7.11602540378442
 30
0.0
 11
95.9103191280201
 21
6.375
 31
0.0
  0
LINE
  5
5D
102
{ACAD_REACTORS
330
489
102
}
330
1F
100
AcDbEntity
  8
1
  6
Continuous
 62
     7
100
AcDbLine
 10
95.76598156072265
 20
6.375
 30
0.0
 11
95.3381503443714
 21
7.11602540378442
 31
0.0
  0
LINE
  5
5E
102
{ACAD_REACTORS
330
489
102
}
330
1F
100
AcDbEntity
  8
1
  6
Continuous
 62
     7
100
AcDbLine
 10
95.3381503443714
 20
7.11602540378442
 30
0.0
 11
95.3381503443714
 21
6.25
 31
0.0
  0
LINE
  5
5F
330
1F
100
AcDbEntity
  8
1
  6
Continuous
 62
     7
100
AcDbLine
 10
91.6299327068006
 20
6.32218213217067
 30
0.0
 11
95.8381503443714
 21
8.75
 31
0.0
  0
LINE
  5
60
330
1F
100
AcDbEntity
  8
1
  6
Continuous
 62
     7
100
AcDbLine
 10
95.8381503443714
 20
8.75
 30
0.0
 11
100.0463679819422
 21
6.32218213217067
 31
0.0
  0
LINE
  5
61
330
1F
100
AcDbEntity
  8
1
  6
Continuous
 62
     7
100
AcDbLine
 10
100.0463679819422
 20
6.17781786782928
 30
0.0
 11
95.8381503443714
 21
3.75
 31
0.0
  0
LINE
  5
62
330
1F
100
AcDbEntity
  8
1
  6
Continuous
 62
     7
100
AcDbLine
 10
95.8381503443714
 20
3.75
 30
0.0
 11
91.6299327068006
 21
6.17781786782928
 31
0.0
  0
LINE
  5
63
102
{ACAD_REACTORS
330
489
102
}
330
1F
100
AcDbEntity
  8
1
  6
Continuous
 62
     7
100
AcDbLine
 10
95.00481701103806
 20
6.25
 30
0.0
 11
95.00481701103806
 21
7.86560865601728
 31
0.0
  0
LINE
  5
64
102
{ACAD_REACTORS
330
489
102
}
330
1F
100
AcDbEntity
  8
1
  6
Continuous
 62
     7
100
AcDbLine
 10
95.25203385284975
 20
7.93185020913614
 30
0.0
 11
95.8381503443714
 21
6.91666666666663
 31
0.0
  0
LINE
  5
65
102
{ACAD_REACTORS
330
489
102
}
330
1F
100
AcDbEntity
  8
1
  6
Continuous
 62
     7
100
AcDbLine
 10
95.00481701103806
 20
6.25
 30
0.0
 11
95.00481701103806
 21
5.42379253631645
 31
0.0
  0
LINE
  5
66
102
{ACAD_REACTORS
330
489
102
}
330
1F
100
AcDbEntity
  8
1
  6
Continuous
 62
     7
100
AcDbLine
 10
95.3381503443714
 20
5.42379253631645
 30
0.0
 11
95.3381503443714
 21
6.25
 31
0.0
  0
LINE
  5
67
102
{ACAD_REACTORS
330
489
102
}
330
1F
100
AcDbEntity
  8
1
  6
Continuous
 62
     7
100
AcDbLine
 10
96.3381503443714
 20
6.25
 30
0.0
 11
96.3381503443714
 21
4.6541345353009
 31
0.0
  0
LINE
  5
68
102
{ACAD_REACTORS
330
489
102
}
330
1F
100
AcDbEntity
  8
1
  6
Continuous
 62
     7
100
AcDbLine
 10
96.6714836777047
 20
4.6541345353009
 30
0.0
 11
96.6714836777047
 21
7.86560865601728
 31
0.0
  0
LINE
  5
69
102
{ACAD_REACTORS
330
489
102
}
330
1F
100
AcDbEntity
  8
1
  6
Continuous
 62
     7
100
AcDbLine
 10
96.42426683589305
 20
7.93185020913614
 30
0.0
 11
95.8381503443714
 21
6.91666666666663
 31
0.0
  0
LINE
  5
6A
102
{ACAD_REACTORS
330
48A
102
}
330
1F
100
AcDbEntity
  8
1
  6
Continuous
 62
     7
100
AcDbLine
 10
94.3381503443714
 20
5.13501057401629
 30
0.0
 11
94.3381503443714
 21
7.46125008008369
 31
0.0
  0
LINE
  5
6B
102
{ACAD_REACTORS
330
48A
102
}
330
1F
100
AcDbEntity
  8
1
  6
Continuous
 62
     7
100
AcDbLine
 10
94.6714836777047
 20
7.46125008008369
 30
0.0
 11
94.6714836777047
 21
5.13501057401635
 31
0.0
  0
LINE
  5
6C
102
{ACAD_REACTORS
330
48A
102
}
330
1F
100
AcDbEntity
  8
1
  6
Continuous
 62
     7
100
AcDbLine
 10
94.6714836777047
 20
5.13501057401635
 30
0.0
 11
95.75477075328635
 21
4.5100372611808
 31
0.0
  0
LINE
  5
6D
102
{ACAD_REACTORS
330
48A
102
}
330
1F
100
AcDbEntity
  8
1
  6
Continuous
 62
     7
100
AcDbLine
 10
95.5881966021231
 20
4.2213087324979
 30
0.0
 11
94.50490952654155
 21
4.84628204533345
 31
0.0
  0
LINE
  5
6E
102
{ACAD_REACTORS
330
48B
102
}
330
1F
100
AcDbEntity
  8
1
  6
Continuous
 62
     7
100
AcDbLine
 10
94.00481701103806
 20
7.07663469546833
 30
0.0
 11
94.00481701103806
 21
5.51962595863165
 31
0.0
  0
LINE
  5
6F
102
{ACAD_REACTORS
330
48B
102
}
330
1F
100
AcDbEntity
  8
1
  6
Continuous
 62
     7
100
AcDbLine
 10
94.00481701103806
 20
5.51962595863165
 30
0.0
 11
94.00481701103806
 21
5.42336530453161
 31
0.0
  0
LINE
  5
70
102
{ACAD_REACTORS
330
48B
102
}
330
1F
100
AcDbEntity
  8
1
  6
Continuous
 62
     7
100
AcDbLine
 10
93.6714836777047
 20
5.42336530453161
 30
0.0
 11
93.6714836777047
 21
7.07663469546833
 31
0.0
  0
LINE
  5
71
102
{ACAD_REACTORS
330
48C
102
}
330
1F
100
AcDbEntity
  8
1
  6
Continuous
 62
     7
100
AcDbLine
 10
97.25477075328635
 20
7.60561434442513
 30
0.0
 11
97.92143741995295
 21
7.22099895980972
 31
0.0
  0
LINE
  5
72
102
{ACAD_REACTORS
330
48C
102
}
330
1F
100
AcDbEntity
  8
1
  6
Continuous
 62
     7
100
AcDbLine
 10
97.7548632687898
 20
6.93227043112688
 30
0.0
 11
97.3381503443714
 21
7.17268173367597
 31
0.0
  0
LINE
  5
73
102
{ACAD_REACTORS
330
48C
102
}
330
1F
100
AcDbEntity
  8
1
  6
Continuous
 62
     7
100
AcDbLine
 10
97.3381503443714
 20
7.17268173367597
 30
0.0
 11
97.3381503443714
 21
6.41666666666663
 31
0.0
  0
LINE
  5
74
102
{ACAD_REACTORS
330
48C
102
}
330
1F
100
AcDbEntity
  8
1
  6
Continuous
 62
     7
100
AcDbLine
 10
97.3381503443714
 20
6.41666666666663
 30
0.0
 11
97.8381503443714
 21
6.41666666666663
 31
0.0
  0
LINE
  5
75
102
{ACAD_REACTORS
330
48C
102
}
330
1F
100
AcDbEntity
  8
1
  6
Continuous
 62
     7
100
AcDbLine
 10
97.8381503443714
 20
6.08333333333332
 30
0.0
 11
97.3381503443714
 21
6.08333333333332
 31
0.0
  0
LINE
  5
76
102
{ACAD_REACTORS
330
48C
102
}
330
1F
100
AcDbEntity
  8
1
  6
Continuous
 62
     7
100
AcDbLine
 10
97.3381503443714
 20
6.08333333333332
 30
0.0
 11
97.3381503443714
 21
5.32731826632397
 31
0.0
  0
LINE
  5
77
102
{ACAD_REACTORS
330
48C
102
}
330
1F
100
AcDbEntity
  8
1
  6
Continuous
 62
     7
100
AcDbLine
 10
97.3381503443714
 20
5.32731826632397
 30
0.0
 11
97.7548632687898
 21
5.56772956887312
 31
0.0
  0
LINE
  5
78
102
{ACAD_REACTORS
330
48C
102
}
330
1F
100
AcDbEntity
  8
1
  6
Continuous
 62
     7
100
AcDbLine
 10
97.92143741995295
 20
5.27900104019017
 30
0.0
 11
97.25477075328635
 21
4.89438565557487
 31
0.0
  0
LINE
  5
79
330
1F
100
AcDbEntity
  8
1
  6
Continuous
 62
     7
100
AcDbLine
 10
10.50000000000006
 20
12.5
 30
0.0
 11
102.5000000000001
 21
12.5
 31
0.0
  0
LINE
  5
7A
330
1F
100
AcDbEntity
  8
1
  6
Continuous
 62
     7
100
AcDbLine
 10
14.00000000000006
 20
10.0
 30
0.0
 11
14.00000000000006
 21
12.5
 31
0.0
  0
LINE
  5
7B
330
1F
100
AcDbEntity
  8
1
  6
Continuous
 62
     7
100
AcDbLine
 10
23.00000000000011
 20
10.0
 30
0.0
 11
23.00000000000011
 21
12.5
 31
0.0
  0
LINE
  5
7C
330
1F
100
AcDbEntity
  8
1
  6
Continuous
 62
     7
100
AcDbLine
 10
10.50000000000006
 20
15.0
 30
0.0
 11
102.5000000000001
 21
15.0
 31
0.0
  0
LINE
  5
7D
330
1F
100
AcDbEntity
  8
1
  6
Continuous
 62
     7
100
AcDbLine
 10
14.00000000000006
 20
12.5
 30
0.0
 11
14.00000000000006
 21
15.0
 31
0.0
  0
LINE
  5
7E
330
1F
100
AcDbEntity
  8
1
  6
Continuous
 62
     7
100
AcDbLine
 10
23.00000000000011
 20
12.5
 30
0.0
 11
23.00000000000011
 21
15.0
 31
0.0
  0
LINE
  5
7F
330
1F
100
AcDbEntity
  8
1
  6
Continuous
 62
     7
100
AcDbLine
 10
10.50000000000006
 20
17.5
 30
0.0
 11
102.5000000000001
 21
17.5
 31
0.0
  0
LINE
  5
80
330
1F
100
AcDbEntity
  8
1
  6
Continuous
 62
     7
100
AcDbLine
 10
14.00000000000006
 20
15.0
 30
0.0
 11
14.00000000000006
 21
17.5
 31
0.0
  0
LINE
  5
81
330
1F
100
AcDbEntity
  8
1
  6
Continuous
 62
     7
100
AcDbLine
 10
23.00000000000011
 20
15.0
 30
0.0
 11
23.00000000000011
 21
17.5
 31
0.0
  0
LINE
  5
82
330
1F
100
AcDbEntity
  8
1
  6
Continuous
 62
     7
100
AcDbLine
 10
10.50000000000006
 20
20.0
 30
0.0
 11
102.5000000000001
 21
20.0
 31
0.0
  0
LINE
  5
83
330
1F
100
AcDbEntity
  8
1
  6
Continuous
 62
     7
100
AcDbLine
 10
14.00000000000006
 20
17.5
 30
0.0
 11
14.00000000000006
 21
20.0
 31
0.0
  0
LINE
  5
84
330
1F
100
AcDbEntity
  8
1
  6
Continuous
 62
     7
100
AcDbLine
 10
23.00000000000011
 20
17.5
 30
0.0
 11
23.00000000000011
 21
20.0
 31
0.0
  0
LINE
  5
85
330
1F
100
AcDbEntity
  8
1
  6
Continuous
 62
     7
100
AcDbLine
 10
10.50000000000006
 20
2.49999999999994
 30
0.0
 11
102.5000000000001
 21
2.49999999999994
 31
0.0
  0
LINE
  5
86
330
1F
100
AcDbEntity
  8
1
  6
Continuous
 62
     7
100
AcDbLine
 10
10.50000000000006
 20
10.0
 30
0.0
 11
102.5000000000001
 21
10.0
 31
0.0
  0
LINE
  5
87
330
1F
100
AcDbEntity
  8
1
  6
DOT_CENTER
 62
     7
100
AcDbLine
 10
40.29243893094089
 20
28.29363794342947
 30
0.0
 11
40.29243893094112
 21
27.92229587613965
 31
0.0
  0
LINE
  5
88
330
1F
100
AcDbEntity
  8
1
  6
DOT_CENTER
 62
     7
100
AcDbLine
 10
40.29243893094112
 20
31.27229587613972
 30
0.0
 11
40.29243893094112
 21
28.99363794342925
 31
0.0
  0
LINE
  5
89
330
1F
100
AcDbEntity
  8
1
  6
DOT_CENTER
 62
     7
100
AcDbLine
 10
40.292438930941
 20
49.68229587613968
 30
0.0
 11
40.292438930941
 21
43.96229587613966
 31
0.0
  0
LINE
  5
8A
330
1F
100
AcDbEntity
  8
1
  6
DOT_CENTER
 62
     7
100
AcDbLine
 10
43.15243893094102
 20
46.82229587613968
 30
0.0
 11
37.43243893094105
 21
46.82229587613968
 31
0.0
  0
LINE
  5
8B
330
1F
100
AcDbEntity
  8
1
  6
DOT_CENTER
 62
     7
100
AcDbLine
 10
35.29243893094106
 20
45.4822958761398
 30
0.0
 11
35.29243893094106
 21
39.76229587613975
 31
0.0
  0
LINE
  5
8C
330
1F
100
AcDbEntity
  8
1
  6
DOT_CENTER
 62
     7
100
AcDbLine
 10
38.15243893094107
 20
42.62229587613977
 30
0.0
 11
32.43243893094105
 21
42.62229587613977
 31
0.0
  0
LINE
  5
8D
330
1F
100
AcDbEntity
  8
1
  6
DOT_CENTER
 62
     7
100
AcDbLine
 10
45.29243893094106
 20
45.48229587613986
 30
0.0
 11
45.29243893094106
 21
39.7622958761398
 31
0.0
  0
LINE
  5
8E
330
1F
100
AcDbEntity
  8
1
  6
DOT_CENTER
 62
     7
100
AcDbLine
 10
48.15243893094107
 20
42.62229587613983
 30
0.0
 11
42.43243893094099
 21
42.62229587613983
 31
0.0
  0
LINE
  5
8F
330
1F
100
AcDbEntity
  8
1
  6
DOT_CENTER
 62
     7
100
AcDbLine
 10
42.19249443538776
 20
44.73693454763124
 30
0.0
 11
42.19249443538776
 21
43.30753051218296
 31
0.0
  0
LINE
  5
90
330
1F
100
AcDbEntity
  8
1
  6
DOT_CENTER
 62
     7
100
AcDbLine
 10
42.90719645311192
 20
44.0222325299071
 30
0.0
 11
41.47779241766365
 21
44.0222325299071
 31
0.0
  0
LINE
  5
91
330
1F
100
AcDbEntity
  8
1
  6
DOT_CENTER
 62
     7
100
AcDbLine
 10
45.0846520549854
 20
40.13145075107001
 30
0.0
 11
45.0846520549854
 21
34.41145075106996
 31
0.0
  0
LINE
  5
92
330
1F
100
AcDbEntity
  8
1
  6
DOT_CENTER
 62
     7
100
AcDbLine
 10
47.94465205498541
 20
37.27145075106999
 30
0.0
 11
42.22465205498533
 21
37.27145075106999
 31
0.0
  0
LINE
  5
93
330
1F
100
AcDbEntity
  8
1
  6
DOT_CENTER
 62
     7
100
AcDbLine
 10
35.50022580689689
 20
40.13145075106999
 30
0.0
 11
35.50022580689689
 21
34.41145075106995
 31
0.0
  0
LINE
  5
94
330
1F
100
AcDbEntity
  8
1
  6
DOT_CENTER
 62
     7
100
AcDbLine
 10
38.36022580689691
 20
37.27145075106996
 30
0.0
 11
32.64022580689688
 21
37.27145075106996
 31
0.0
  0
LINE
  5
95
330
1F
100
AcDbEntity
  8
0
  6
Continuous
 62
     7
100
AcDbLine
 10
28.29243893094106
 20
31.9722958761396
 30
0.0
 11
28.29243893094106
 21
47.97229587613967
 31
0.0
  0
LINE
  5
96
330
1F
100
AcDbEntity
  8
0
  6
Continuous
 62
     7
100
AcDbLine
 10
34.78942154566762
 20
38.93796126775392
 30
0.0
 11
33.72739973523149
 21
36.89783635144269
 31
0.0
  0
LINE
  5
97
330
1F
100
AcDbEntity
  8
0
  6
Continuous
 62
     7
100
AcDbLine
 10
32.44180089682739
 20
34.86136007446324
 30
0.0
 11
30.91803047315177
 21
31.93422432497511
 31
0.0
  0
LINE
  5
98
330
1F
100
AcDbEntity
  8
0
  6
Continuous
 62
     7
100
AcDbLine
 10
30.91803047315177
 20
31.93422432497511
 30
0.0
 11
33.75646513932209
 21
30.45662876262302
 31
0.0
  0
LINE
  5
99
330
1F
100
AcDbEntity
  8
0
  6
Continuous
 62
     7
100
AcDbLine
 10
33.75646513932209
 20
30.45662876262302
 30
0.0
 11
35.2802355629977
 21
33.38376451211114
 31
0.0
  0
LINE
  5
9A
330
1F
100
AcDbEntity
  8
0
  6
Continuous
 62
     7
100
AcDbLine
 10
35.2802355629977
 20
33.38376451211114
 30
0.0
 11
32.44180089682739
 21
34.86136007446324
 31
0.0
  0
LINE
  5
9B
330
1F
100
AcDbEntity
  8
0
  6
Continuous
 62
     7
100
AcDbLine
 10
33.63824292965616
 20
45.66909792063102
 30
0.0
 11
33.63824292965616
 21
45.75034792063102
 31
0.0
  0
LINE
  5
9C
330
1F
100
AcDbEntity
  8
0
  6
Continuous
 62
     7
100
AcDbLine
 10
33.63824292965616
 20
45.75034792063102
 30
0.0
 11
33.60574292965613
 21
45.86409792063103
 31
0.0
  0
LINE
  5
9D
330
1F
100
AcDbEntity
  8
0
  6
Continuous
 62
     7
100
AcDbLine
 10
33.69243893094104
 20
49.4722958761397
 30
0.0
 11
33.69243893094109
 21
46.17229587614007
 31
0.0
  0
LINE
  5
9E
330
1F
100
AcDbEntity
  8
0
  6
Continuous
 62
     7
100
AcDbLine
 10
32.88466393853032
 20
35.98791941447531
 30
0.0
 11
32.88466393853032
 21
36.16666941447531
 31
0.0
  0
LINE
  5
9F
330
1F
100
AcDbEntity
  8
0
  6
Continuous
 62
     7
100
AcDbLine
 10
32.82574292965616
 20
45.11659792063102
 30
0.0
 11
32.84199292965617
 21
45.03534792063101
 31
0.0
  0
LINE
  5
A0
330
1F
100
AcDbEntity
  8
0
  6
Continuous
 62
     7
100
AcDbLine
 10
33.55699292965615
 20
45.03534792063101
 30
0.0
 11
33.57324292965616
 21
45.11659792063102
 31
0.0
  0
LINE
  5
A1
330
1F
100
AcDbEntity
  8
0
  6
Continuous
 62
     7
100
AcDbLine
 10
33.02074292965615
 20
45.06784792063101
 30
0.0
 11
33.00449292965614
 21
45.11659792063102
 31
0.0
  0
LINE
  5
A2
330
1F
100
AcDbEntity
  8
0
  6
Continuous
 62
     7
100
AcDbLine
 10
33.39449292965612
 20
45.11659792063102
 30
0.0
 11
33.37824292965617
 21
45.06784792063101
 31
0.0
  0
LINE
  5
A3
330
1F
100
AcDbEntity
  8
0
  6
Continuous
 62
     7
100
AcDbLine
 10
33.15074292965615
 20
46.10784792063102
 30
0.0
 11
33.02074292965615
 21
46.07534792063102
 31
0.0
  0
LINE
  5
A4
330
1F
100
AcDbEntity
  8
0
  6
Continuous
 62
     7
100
AcDbLine
 10
32.97199292965611
 20
44.87284792063103
 30
0.0
 11
33.06949292965614
 21
44.82409792063103
 31
0.0
  0
LINE
  5
A5
330
1F
100
AcDbEntity
  8
0
  6
Continuous
 62
     7
100
AcDbLine
 10
33.06949292965614
 20
44.82409792063103
 30
0.0
 11
33.15074292965615
 21
44.80784792063102
 31
0.0
  0
LINE
  5
A6
330
1F
100
AcDbEntity
  8
0
  6
Continuous
 62
     7
100
AcDbLine
 10
33.15074292965615
 20
44.80784792063102
 30
0.0
 11
33.24824292965617
 21
44.80784792063102
 31
0.0
  0
LINE
  5
A7
330
1F
100
AcDbEntity
  8
0
  6
Continuous
 62
     7
100
AcDbLine
 10
33.24824292965612
 20
46.10784792063102
 30
0.0
 11
33.15074292965615
 21
46.10784792063102
 31
0.0
  0
LINE
  5
A8
330
1F
100
AcDbEntity
  8
0
  6
Continuous
 62
     7
100
AcDbLine
 10
33.16699292965616
 20
45.92909792063102
 30
0.0
 11
33.23199292965616
 21
45.92909792063102
 31
0.0
  0
LINE
  5
A9
330
1F
100
AcDbEntity
  8
0
  6
Continuous
 62
     7
100
AcDbLine
 10
33.08574292965615
 20
45.91284792063102
 30
0.0
 11
33.16699292965616
 21
45.92909792063102
 31
0.0
  0
LINE
  5
AA
330
1F
100
AcDbEntity
  8
0
  6
Continuous
 62
     7
100
AcDbLine
 10
33.02074292965615
 20
45.86409792063101
 30
0.0
 11
33.08574292965615
 21
45.91284792063102
 31
0.0
  0
LINE
  5
AB
330
1F
100
AcDbEntity
  8
0
  6
Continuous
 62
     7
100
AcDbLine
 10
32.97199292965611
 20
45.79909792063101
 30
0.0
 11
33.02074292965615
 21
45.86409792063101
 31
0.0
  0
LINE
  5
AC
330
1F
100
AcDbEntity
  8
0
  6
Continuous
 62
     7
100
AcDbLine
 10
33.00449292965614
 20
45.11659792063102
 30
0.0
 11
33.00449292965614
 21
45.18159792063102
 31
0.0
  0
LINE
  5
AD
330
1F
100
AcDbEntity
  8
0
  6
Continuous
 62
     7
100
AcDbLine
 10
33.00449292965614
 20
45.18159792063102
 30
0.0
 11
33.02074292965615
 21
45.23034792063102
 31
0.0
  0
LINE
  5
AE
330
1F
100
AcDbEntity
  8
0
  6
Continuous
 62
     7
100
AcDbLine
 10
33.02074292965615
 20
45.53909792063102
 30
0.0
 11
32.97199292965617
 21
45.60409792063102
 31
0.0
  0
LINE
  5
AF
330
1F
100
AcDbEntity
  8
0
  6
Continuous
 62
     7
100
AcDbLine
 10
33.10199292965616
 20
44.98659792063101
 30
0.0
 11
33.05324292965612
 21
45.01909792063101
 31
0.0
  0
LINE
  5
B0
330
1F
100
AcDbEntity
  8
0
  6
Continuous
 62
     7
100
AcDbLine
 10
33.05324292965612
 20
45.01909792063101
 30
0.0
 11
33.02074292965615
 21
45.06784792063101
 31
0.0
  0
LINE
  5
B1
330
1F
100
AcDbEntity
  8
0
  6
Continuous
 62
     7
100
AcDbLine
 10
33.02074292965615
 20
45.23034792063102
 30
0.0
 11
33.05324292965618
 21
45.27909792063103
 31
0.0
  0
LINE
  5
B2
330
1F
100
AcDbEntity
  8
0
  6
Continuous
 62
     7
100
AcDbLine
 10
33.05324292965618
 20
45.27909792063103
 30
0.0
 11
33.10199292965616
 21
45.31159792063102
 31
0.0
  0
LINE
  5
B3
330
1F
100
AcDbEntity
  8
0
  6
Continuous
 62
     7
100
AcDbLine
 10
33.08574292965615
 20
45.49034792063101
 30
0.0
 11
33.02074292965615
 21
45.53909792063102
 31
0.0
  0
LINE
  5
B4
330
1F
100
AcDbEntity
  8
0
  6
Continuous
 62
     7
100
AcDbLine
 10
33.16699292965616
 20
44.97034792063101
 30
0.0
 11
33.10199292965616
 21
44.98659792063101
 31
0.0
  0
LINE
  5
B5
330
1F
100
AcDbEntity
  8
0
  6
Continuous
 62
     7
100
AcDbLine
 10
33.10199292965616
 20
45.31159792063102
 30
0.0
 11
33.16699292965616
 21
45.32784792063102
 31
0.0
  0
LINE
  5
B6
330
1F
100
AcDbEntity
  8
0
  6
Continuous
 62
     7
100
AcDbLine
 10
33.16699292965616
 20
45.47409792063101
 30
0.0
 11
33.08574292965615
 21
45.49034792063101
 31
0.0
  0
LINE
  5
B7
330
1F
100
AcDbEntity
  8
0
  6
Continuous
 62
     7
100
AcDbLine
 10
33.23199292965616
 20
44.97034792063101
 30
0.0
 11
33.16699292965616
 21
44.97034792063101
 31
0.0
  0
LINE
  5
B8
330
1F
100
AcDbEntity
  8
0
  6
Continuous
 62
     7
100
AcDbLine
 10
33.23199292965616
 20
45.32784792063102
 30
0.0
 11
33.23199292965616
 21
45.47409792063101
 31
0.0
  0
LINE
  5
B9
330
1F
100
AcDbEntity
  8
0
  6
Continuous
 62
     7
100
AcDbLine
 10
33.23199292965616
 20
45.47409792063101
 30
0.0
 11
33.16699292965616
 21
45.47409792063101
 31
0.0
  0
LINE
  5
BA
330
1F
100
AcDbEntity
  8
0
  6
Continuous
 62
     7
100
AcDbLine
 10
33.16699292965616
 20
45.32784792063102
 30
0.0
 11
33.23199292965616
 21
45.32784792063102
 31
0.0
  0
LINE
  5
BB
330
1F
100
AcDbEntity
  8
0
  6
Continuous
 62
     7
100
AcDbLine
 10
32.84199292965617
 20
45.03534792063101
 30
0.0
 11
32.90699292965617
 21
44.93784792063102
 31
0.0
  0
LINE
  5
BC
330
1F
100
AcDbEntity
  8
0
  6
Continuous
 62
     7
100
AcDbLine
 10
33.49199292965615
 20
44.937847920631
 30
0.0
 11
33.55699292965615
 21
45.03534792063101
 31
0.0
  0
LINE
  5
BD
330
1F
100
AcDbEntity
  8
0
  6
Continuous
 62
     7
100
AcDbLine
 10
33.29699292965616
 20
44.986597920631
 30
0.0
 11
33.23199292965616
 21
44.97034792063101
 31
0.0
  0
LINE
  5
BE
330
1F
100
AcDbEntity
  8
0
  6
Continuous
 62
     7
100
AcDbLine
 10
33.34574292965614
 20
45.01909792063103
 30
0.0
 11
33.29699292965616
 21
44.986597920631
 31
0.0
  0
LINE
  5
BF
330
1F
100
AcDbEntity
  8
0
  6
Continuous
 62
     7
100
AcDbLine
 10
32.90699292965617
 20
44.93784792063102
 30
0.0
 11
32.97199292965611
 21
44.87284792063103
 31
0.0
  0
LINE
  5
C0
330
1F
100
AcDbEntity
  8
0
  6
Continuous
 62
     7
100
AcDbLine
 10
33.42699292965615
 20
44.87284792063102
 30
0.0
 11
33.49199292965615
 21
44.937847920631
 31
0.0
  0
LINE
  5
C1
330
1F
100
AcDbEntity
  8
0
  6
Continuous
 62
     7
100
AcDbLine
 10
33.02074292965615
 20
46.07534792063102
 30
0.0
 11
32.92324292965613
 21
46.02659792063102
 31
0.0
  0
LINE
  5
C2
330
1F
100
AcDbEntity
  8
0
  6
Continuous
 62
     7
100
AcDbLine
 10
32.92324292965613
 20
46.02659792063102
 30
0.0
 11
32.84199292965617
 21
45.94534792063102
 31
0.0
  0
LINE
  5
C3
330
1F
100
AcDbEntity
  8
0
  6
Continuous
 62
     7
100
AcDbLine
 10
32.84199292965617
 20
45.94534792063102
 30
0.0
 11
32.79324292965613
 21
45.86409792063103
 31
0.0
  0
LINE
  5
C4
330
1F
100
AcDbEntity
  8
0
  6
Continuous
 62
     7
100
AcDbLine
 10
32.79324292965613
 20
45.86409792063103
 30
0.0
 11
32.76074292965616
 21
45.75034792063102
 31
0.0
  0
LINE
  5
C5
330
1F
100
AcDbEntity
  8
0
  6
Continuous
 62
     7
100
AcDbLine
 10
32.76074292965616
 20
45.75034792063102
 30
0.0
 11
32.76074292965616
 21
45.66909792063102
 31
0.0
  0
LINE
  5
C6
330
1F
100
AcDbEntity
  8
0
  6
Continuous
 62
     7
100
AcDbLine
 10
32.76074292965616
 20
45.66909792063102
 30
0.0
 11
32.79324292965613
 21
45.55534792063101
 31
0.0
  0
LINE
  5
C7
330
1F
100
AcDbEntity
  8
0
  6
Continuous
 62
     7
100
AcDbLine
 10
32.79324292965613
 20
45.55534792063101
 30
0.0
 11
32.85824292965613
 21
45.45784792063101
 31
0.0
  0
LINE
  5
C8
330
1F
100
AcDbEntity
  8
0
  6
Continuous
 62
     7
100
AcDbLine
 10
32.85824292965613
 20
45.45784792063101
 30
0.0
 11
32.93949292965614
 21
45.39284792063101
 31
0.0
  0
LINE
  5
C9
330
1F
100
AcDbEntity
  8
0
  6
Continuous
 62
     7
100
AcDbLine
 10
32.93949292965614
 20
45.39284792063101
 30
0.0
 11
32.90699292965617
 21
45.36034792063101
 31
0.0
  0
LINE
  5
CA
330
1F
100
AcDbEntity
  8
0
  6
Continuous
 62
     7
100
AcDbLine
 10
32.90699292965617
 20
45.36034792063101
 30
0.0
 11
32.84199292965617
 21
45.26284792063102
 31
0.0
  0
LINE
  5
CB
330
1F
100
AcDbEntity
  8
0
  6
Continuous
 62
     7
100
AcDbLine
 10
32.84199292965617
 20
45.26284792063102
 30
0.0
 11
32.82574292965616
 21
45.18159792063102
 31
0.0
  0
LINE
  5
CC
330
1F
100
AcDbEntity
  8
0
  6
Continuous
 62
     7
100
AcDbLine
 10
32.95574292965615
 20
45.73409792063102
 30
0.0
 11
32.97199292965611
 21
45.79909792063101
 31
0.0
  0
LINE
  5
CD
330
1F
100
AcDbEntity
  8
0
  6
Continuous
 62
     7
100
AcDbLine
 10
32.95574292965615
 20
45.66909792063102
 30
0.0
 11
32.95574292965615
 21
45.73409792063102
 31
0.0
  0
LINE
  5
CE
330
1F
100
AcDbEntity
  8
0
  6
Continuous
 62
     7
100
AcDbLine
 10
32.97199292965617
 20
45.60409792063102
 30
0.0
 11
32.95574292965615
 21
45.66909792063102
 31
0.0
  0
LINE
  5
CF
330
1F
100
AcDbEntity
  8
0
  6
Continuous
 62
     7
100
AcDbLine
 10
33.37824292965611
 20
45.86409792063101
 30
0.0
 11
33.42699292965615
 21
45.79909792063101
 31
0.0
  0
LINE
  5
D0
330
1F
100
AcDbEntity
  8
0
  6
Continuous
 62
     7
100
AcDbLine
 10
33.60574292965613
 20
45.86409792063103
 30
0.0
 11
33.55699292965615
 21
45.94534792063102
 31
0.0
  0
LINE
  5
D1
330
1F
100
AcDbEntity
  8
0
  6
Continuous
 62
     7
100
AcDbLine
 10
33.55699292965615
 20
45.94534792063102
 30
0.0
 11
33.47574292965614
 21
46.02659792063102
 31
0.0
  0
LINE
  5
D2
330
1F
100
AcDbEntity
  8
0
  6
Continuous
 62
     7
100
AcDbLine
 10
33.47574292965614
 20
46.02659792063102
 30
0.0
 11
33.37824292965611
 21
46.07534792063103
 31
0.0
  0
LINE
  5
D3
330
1F
100
AcDbEntity
  8
0
  6
Continuous
 62
     7
100
AcDbLine
 10
33.32949292965613
 20
44.82409792063102
 30
0.0
 11
33.42699292965615
 21
44.87284792063102
 31
0.0
  0
LINE
  5
D4
330
1F
100
AcDbEntity
  8
0
  6
Continuous
 62
     7
100
AcDbLine
 10
33.44324292965617
 20
45.73409792063102
 30
0.0
 11
33.44324292965617
 21
45.66909792063102
 31
0.0
  0
LINE
  5
D5
330
1F
100
AcDbEntity
  8
0
  6
Continuous
 62
     7
100
AcDbLine
 10
33.42699292965615
 20
45.79909792063101
 30
0.0
 11
33.44324292965617
 21
45.73409792063102
 31
0.0
  0
LINE
  5
D6
330
1F
100
AcDbEntity
  8
0
  6
Continuous
 62
     7
100
AcDbLine
 10
33.37824292965617
 20
45.06784792063101
 30
0.0
 11
33.34574292965614
 21
45.01909792063103
 31
0.0
  0
LINE
  5
D7
330
1F
100
AcDbEntity
  8
0
  6
Continuous
 62
     7
100
AcDbLine
 10
33.39449292965612
 20
45.18159792063102
 30
0.0
 11
33.39449292965612
 21
45.11659792063102
 31
0.0
  0
LINE
  5
D8
330
1F
100
AcDbEntity
  8
0
  6
Continuous
 62
     7
100
AcDbLine
 10
33.44324292965617
 20
45.66909792063102
 30
0.0
 11
33.63824292965616
 21
45.66909792063102
 31
0.0
  0
LINE
  5
D9
330
1F
100
AcDbEntity
  8
0
  6
Continuous
 62
     7
100
AcDbLine
 10
32.82574292965616
 20
45.18159792063102
 30
0.0
 11
32.82574292965616
 21
45.11659792063102
 31
0.0
  0
LINE
  5
DA
330
1F
100
AcDbEntity
  8
0
  6
Continuous
 62
     7
100
AcDbLine
 10
33.57324292965616
 20
45.18159792063102
 30
0.0
 11
33.39449292965612
 21
45.18159792063102
 31
0.0
  0
LINE
  5
DB
330
1F
100
AcDbEntity
  8
0
  6
Continuous
 62
     7
100
AcDbLine
 10
33.57324292965616
 20
45.11659792063102
 30
0.0
 11
33.57324292965616
 21
45.18159792063102
 31
0.0
  0
LINE
  5
DC
330
1F
100
AcDbEntity
  8
0
  6
Continuous
 62
     7
100
AcDbLine
 10
33.23199292965616
 20
45.92909792063102
 30
0.0
 11
33.31324292965611
 21
45.91284792063102
 31
0.0
  0
LINE
  5
DD
330
1F
100
AcDbEntity
  8
0
  6
Continuous
 62
     7
100
AcDbLine
 10
33.37824292965611
 20
46.07534792063103
 30
0.0
 11
33.24824292965612
 21
46.10784792063102
 31
0.0
  0
LINE
  5
DE
330
1F
100
AcDbEntity
  8
0
  6
Continuous
 62
     7
100
AcDbLine
 10
33.24824292965617
 20
44.80784792063102
 30
0.0
 11
33.32949292965613
 21
44.82409792063102
 31
0.0
  0
LINE
  5
DF
330
1F
100
AcDbEntity
  8
0
  6
Continuous
 62
     7
100
AcDbLine
 10
33.31324292965611
 20
45.91284792063102
 30
0.0
 11
33.37824292965611
 21
45.86409792063101
 31
0.0
  0
LINE
  5
E0
330
1F
100
AcDbEntity
  8
0
  6
Continuous
 62
     7
100
AcDbLine
 10
30.99243893094111
 20
38.47229587613968
 30
0.0
 11
30.99243893094105
 21
41.47229587613968
 31
0.0
  0
LINE
  5
E1
330
1F
100
AcDbEntity
  8
0
  6
Continuous
 62
     7
100
AcDbLine
 10
31.29243893094106
 20
41.57229587613968
 30
0.0
 11
31.29243893094106
 21
38.37229587613966
 31
0.0
  0
LINE
  5
E2
330
1F
100
AcDbEntity
  8
0
  6
Continuous
 62
     7
100
AcDbLine
 10
31.99091393853031
 20
36.16666941447529
 30
0.0
 11
31.99091393853031
 21
36.00416941447531
 31
0.0
  0
LINE
  5
E3
330
1F
100
AcDbEntity
  8
0
  6
Continuous
 62
     7
100
AcDbLine
 10
32.33216393853031
 20
36.45916941447531
 30
0.0
 11
32.15341393853034
 21
36.45916941447531
 31
0.0
  0
LINE
  5
E4
330
1F
100
AcDbEntity
  8
0
  6
Continuous
 62
     7
100
AcDbLine
 10
32.33216393853031
 20
36.00416941447531
 30
0.0
 11
32.70591393853034
 21
36.00416941447531
 31
0.0
  0
LINE
  5
E5
330
1F
100
AcDbEntity
  8
0
  6
Continuous
 62
     7
100
AcDbLine
 10
31.99091393853031
 20
36.00416941447531
 30
0.0
 11
32.15341393853034
 21
36.00416941447531
 31
0.0
  0
LINE
  5
E6
330
1F
100
AcDbEntity
  8
0
  6
Continuous
 62
     7
100
AcDbLine
 10
32.15341393853034
 20
36.16666941447529
 30
0.0
 11
31.99091393853031
 21
36.16666941447529
 31
0.0
  0
LINE
  5
E7
330
1F
100
AcDbEntity
  8
0
  6
Continuous
 62
     7
100
AcDbLine
 10
32.88466393853032
 20
36.16666941447531
 30
0.0
 11
32.33216393853031
 21
36.16666941447531
 31
0.0
  0
LINE
  5
E8
330
1F
100
AcDbEntity
  8
0
  6
Continuous
 62
     7
100
AcDbLine
 10
32.33216393853031
 20
35.45166941447532
 30
0.0
 11
32.33216393853031
 21
36.00416941447531
 31
0.0
  0
LINE
  5
E9
330
1F
100
AcDbEntity
  8
0
  6
Continuous
 62
     7
100
AcDbLine
 10
32.33216393853031
 20
36.16666941447531
 30
0.0
 11
32.33216393853031
 21
36.45916941447531
 31
0.0
  0
LINE
  5
EA
330
1F
100
AcDbEntity
  8
0
  6
Continuous
 62
     7
100
AcDbLine
 10
32.15341393853034
 20
35.15916941447532
 30
0.0
 11
32.33216393853031
 21
35.15916941447532
 31
0.0
  0
LINE
  5
EB
330
1F
100
AcDbEntity
  8
0
  6
Continuous
 62
     7
100
AcDbLine
 10
32.15341393853034
 20
36.00416941447531
 30
0.0
 11
32.15341393853034
 21
35.15916941447532
 31
0.0
  0
LINE
  5
EC
330
1F
100
AcDbEntity
  8
0
  6
Continuous
 62
     7
100
AcDbLine
 10
32.70591393853034
 20
36.00416941447531
 30
0.0
 11
32.33216393853031
 21
35.45166941447532
 31
0.0
  0
LINE
  5
ED
330
1F
100
AcDbEntity
  8
0
  6
Continuous
 62
     7
100
AcDbLine
 10
32.33216393853031
 20
35.15916941447532
 30
0.0
 11
32.88466393853032
 21
35.98791941447531
 31
0.0
  0
LINE
  5
EE
330
1F
100
AcDbEntity
  8
0
  6
Continuous
 62
     7
100
AcDbLine
 10
31.29243893094106
 20
38.37229587613966
 30
0.0
 11
30.99243893094105
 21
38.37229587613966
 31
0.0
  0
LINE
  5
EF
330
1F
100
AcDbEntity
  8
0
  6
Continuous
 62
     7
100
AcDbLine
 10
32.15341393853034
 20
36.45916941447531
 30
0.0
 11
32.15341393853034
 21
36.16666941447529
 31
0.0
  0
LINE
  5
F0
330
1F
100
AcDbEntity
  8
0
  6
Continuous
 62
     7
100
AcDbLine
 10
30.99243893094105
 20
38.37229587613966
 30
0.0
 11
30.99243893094111
 21
38.47229587613968
 31
0.0
  0
LINE
  5
F1
330
1F
100
AcDbEntity
  8
0
  6
Continuous
 62
     7
100
AcDbLine
 10
29.79243893094106
 20
41.47229587613967
 30
0.0
 11
29.79243893094106
 21
38.47229587613968
 31
0.0
  0
LINE
  5
F2
330
1F
100
AcDbEntity
  8
0
  6
Continuous
 62
     7
100
AcDbLine
 10
30.79243893094106
 20
38.47229587613968
 30
0.0
 11
30.79243893094106
 21
38.37229587613966
 31
0.0
  0
LINE
  5
F3
330
1F
100
AcDbEntity
  8
0
  6
Continuous
 62
     7
100
AcDbLine
 10
30.99243893094105
 20
38.37229587613966
 30
0.0
 11
30.79243893094106
 21
38.37229587613966
 31
0.0
  0
LINE
  5
F4
330
1F
100
AcDbEntity
  8
0
  6
Continuous
 62
     7
100
AcDbLine
 10
30.79243893094106
 20
38.37229587613966
 30
0.0
 11
29.79243893094106
 21
38.37229587613965
 31
0.0
  0
LINE
  5
F5
330
1F
100
AcDbEntity
  8
0
  6
Continuous
 62
     7
100
AcDbLine
 10
29.79243893094106
 20
38.37229587613965
 30
0.0
 11
29.792438930941
 21
32.47229587613968
 31
0.0
  0
LINE
  5
F6
330
1F
100
AcDbEntity
  8
0
  6
Continuous
 62
     7
100
AcDbLine
 10
30.99243893094111
 20
38.47229587613968
 30
0.0
 11
29.79243893094106
 21
38.47229587613968
 31
0.0
  0
LINE
  5
F7
330
1F
100
AcDbEntity
  8
0
  6
Continuous
 62
     7
100
AcDbLine
 10
29.79243893094106
 20
38.37229587613965
 30
0.0
 11
29.79243893094106
 21
38.47229587613968
 31
0.0
  0
LINE
  5
F8
330
1F
100
AcDbEntity
  8
0
  6
Continuous
 62
     7
100
AcDbLine
 10
41.89243893094108
 20
39.87229587613965
 30
0.0
 11
41.89243893094108
 21
43.27229587613961
 31
0.0
  0
LINE
  5
F9
330
1F
100
AcDbEntity
  8
0
  6
Continuous
 62
     7
100
AcDbLine
 10
38.69243893094104
 20
43.27229587613959
 30
0.0
 11
38.69243893094104
 21
39.87229587613963
 31
0.0
  0
LINE
  5
FA
330
1F
100
AcDbEntity
  8
0
  6
Continuous
 62
     7
100
AcDbLine
 10
29.79243893094106
 20
41.57229587613966
 30
0.0
 11
30.79243893094106
 21
41.57229587613966
 31
0.0
  0
LINE
  5
FB
330
1F
100
AcDbEntity
  8
0
  6
Continuous
 62
     7
100
AcDbLine
 10
30.99243893094105
 20
41.57229587613968
 30
0.0
 11
31.29243893094106
 21
41.57229587613968
 31
0.0
  0
LINE
  5
FC
330
1F
100
AcDbEntity
  8
0
  6
Continuous
 62
     7
100
AcDbLine
 10
30.79243893094106
 20
41.57229587613966
 30
0.0
 11
30.99243893094105
 21
41.57229587613968
 31
0.0
  0
LINE
  5
FD
330
1F
100
AcDbEntity
  8
0
  6
Continuous
 62
     7
100
AcDbLine
 10
30.79243893094106
 20
41.57229587613966
 30
0.0
 11
30.79243893094106
 21
41.47229587613968
 31
0.0
  0
LINE
  5
FE
330
1F
100
AcDbEntity
  8
0
  6
Continuous
 62
     7
100
AcDbLine
 10
41.69243893093893
 20
45.67229587613966
 30
0.0
 11
38.89243893094347
 21
45.67229587614052
 31
0.0
  0
LINE
  5
FF
330
1F
100
AcDbEntity
  8
0
  6
Continuous
 62
     7
100
AcDbLine
 10
41.7404487497703
 20
44.06342079370508
 30
0.0
 11
41.7404487497703
 21
43.97874879370508
 31
0.0
  0
LINE
  5
100
330
1F
100
AcDbEntity
  8
0
  6
Continuous
 62
     7
100
AcDbLine
 10
30.99243893094105
 20
41.47229587613968
 30
0.0
 11
29.79243893094106
 21
41.47229587613967
 31
0.0
  0
LINE
  5
101
330
1F
100
AcDbEntity
  8
0
  6
Continuous
 62
     7
100
AcDbLine
 10
30.99243893094105
 20
41.47229587613968
 30
0.0
 11
30.99243893094105
 21
41.57229587613968
 31
0.0
  0
LINE
  5
102
330
1F
100
AcDbEntity
  8
0
  6
Continuous
 62
     7
100
AcDbLine
 10
29.79243893094106
 20
41.47229587613967
 30
0.0
 11
29.79243893094106
 21
41.57229587613966
 31
0.0
  0
LINE
  5
103
330
1F
100
AcDbEntity
  8
0
  6
Continuous
 62
     7
100
AcDbLine
 10
29.79243893094106
 20
41.57229587613966
 30
0.0
 11
29.792438930941
 21
47.47229587613968
 31
0.0
  0
LINE
  5
104
330
1F
100
AcDbEntity
  8
0
  6
Continuous
 62
     7
100
AcDbLine
 10
32.292438930941
 20
51.97229587613965
 30
0.0
 11
48.29243893094106
 21
51.97229587613975
 31
0.0
  0
LINE
  5
105
330
1F
100
AcDbEntity
  8
0
  6
Continuous
 62
     7
100
AcDbLine
 10
32.792438930941
 20
50.4722958761397
 30
0.0
 11
47.792438930941
 21
50.47229587613975
 31
0.0
  0
LINE
  5
106
330
1F
100
AcDbEntity
  8
0
  6
Continuous
 62
     7
100
AcDbLine
 10
46.89243893094103
 20
46.17229587613981
 30
0.0
 11
46.89243893094097
 21
49.47229587613978
 31
0.0
  0
LINE
  5
107
330
1F
100
AcDbEntity
  8
0
  6
Continuous
 62
     7
100
AcDbLine
 10
43.69243893094104
 20
46.1722958761398
 30
0.0
 11
46.89243893094103
 21
46.17229587613981
 31
0.0
  0
LINE
  5
108
330
1F
100
AcDbEntity
  8
0
  6
Continuous
 62
     7
100
AcDbLine
 10
47.0301617015058
 20
45.0899461513512
 30
0.0
 11
47.04641170150582
 21
45.00869615135119
 31
0.0
  0
LINE
  5
109
330
1F
100
AcDbEntity
  8
0
  6
Continuous
 62
     7
100
AcDbLine
 10
47.2251617015058
 20
45.2036961513512
 30
0.0
 11
47.25766170150583
 21
45.25244615135119
 31
0.0
  0
LINE
  5
10A
330
1F
100
AcDbEntity
  8
0
  6
Continuous
 62
     7
100
AcDbLine
 10
47.25766170150583
 20
45.25244615135119
 30
0.0
 11
47.46891170150583
 21
45.46369615135119
 31
0.0
  0
LINE
  5
10B
330
1F
100
AcDbEntity
  8
0
  6
Continuous
 62
     7
100
AcDbLine
 10
47.46891170150583
 20
45.46369615135119
 30
0.0
 11
47.5664117015058
 21
45.54494615135121
 31
0.0
  0
LINE
  5
10C
330
1F
100
AcDbEntity
  8
0
  6
Continuous
 62
     7
100
AcDbLine
 10
46.98141170150582
 20
45.9186961513512
 30
0.0
 11
47.61516170150578
 21
45.9186961513512
 31
0.0
  0
LINE
  5
10D
330
1F
100
AcDbEntity
  8
0
  6
Continuous
 62
     7
100
AcDbLine
 10
47.61516170150578
 20
45.9186961513512
 30
0.0
 11
47.58266170150581
 21
45.82119615135119
 31
0.0
  0
LINE
  5
10E
330
1F
100
AcDbEntity
  8
0
  6
Continuous
 62
     7
100
AcDbLine
 10
47.58266170150581
 20
45.82119615135119
 30
0.0
 11
47.5014117015058
 21
45.70744615135119
 31
0.0
  0
LINE
  5
10F
330
1F
100
AcDbEntity
  8
0
  6
Continuous
 62
     7
100
AcDbLine
 10
47.5014117015058
 20
45.70744615135119
 30
0.0
 11
47.38766170150582
 21
45.5774461513512
 31
0.0
  0
LINE
  5
110
330
1F
100
AcDbEntity
  8
0
  6
Continuous
 62
     7
100
AcDbLine
 10
47.38766170150582
 20
45.5774461513512
 30
0.0
 11
47.27391170150578
 21
45.4799461513512
 31
0.0
  0
LINE
  5
111
330
1F
100
AcDbEntity
  8
0
  6
Continuous
 62
     7
100
AcDbLine
 10
47.27391170150578
 20
45.4799461513512
 30
0.0
 11
47.14391170150579
 21
45.3661961513512
 31
0.0
  0
LINE
  5
112
330
1F
100
AcDbEntity
  8
0
  6
Continuous
 62
     7
100
AcDbLine
 10
47.14391170150579
 20
45.3661961513512
 30
0.0
 11
47.11141170150582
 21
45.33369615135121
 31
0.0
  0
LINE
  5
113
330
1F
100
AcDbEntity
  8
0
  6
Continuous
 62
     7
100
AcDbLine
 10
47.11141170150582
 20
45.33369615135121
 30
0.0
 11
47.04641170150582
 21
45.23619615135119
 31
0.0
  0
LINE
  5
114
330
1F
100
AcDbEntity
  8
0
  6
Continuous
 62
     7
100
AcDbLine
 10
46.98141170150582
 20
46.08119615135119
 30
0.0
 11
46.98141170150582
 21
45.9186961513512
 31
0.0
  0
LINE
  5
115
330
1F
100
AcDbEntity
  8
0
  6
Continuous
 62
     7
100
AcDbLine
 10
47.8426617015058
 20
45.98369615135121
 30
0.0
 11
47.8426617015058
 21
46.08119615135119
 31
0.0
  0
LINE
  5
116
330
1F
100
AcDbEntity
  8
0
  6
Continuous
 62
     7
100
AcDbLine
 10
47.8426617015058
 20
46.08119615135119
 30
0.0
 11
46.98141170150582
 21
46.08119615135119
 31
0.0
  0
LINE
  5
117
330
1F
100
AcDbEntity
  8
0
  6
Continuous
 62
     7
100
AcDbLine
 10
47.81016170150583
 20
45.8699461513512
 30
0.0
 11
47.8426617015058
 21
45.98369615135121
 31
0.0
  0
LINE
  5
118
330
1F
100
AcDbEntity
  8
0
  6
Continuous
 62
     7
100
AcDbLine
 10
47.74516170150584
 20
45.75619615135121
 30
0.0
 11
47.81016170150583
 21
45.8699461513512
 31
0.0
  0
LINE
  5
119
330
1F
100
AcDbEntity
  8
0
  6
Continuous
 62
     7
100
AcDbLine
 10
47.66391170150583
 20
45.65869615135119
 30
0.0
 11
47.74516170150584
 21
45.75619615135121
 31
0.0
  0
LINE
  5
11A
330
1F
100
AcDbEntity
  8
0
  6
Continuous
 62
     7
100
AcDbLine
 10
47.5664117015058
 20
45.54494615135121
 30
0.0
 11
47.66391170150583
 21
45.65869615135119
 31
0.0
  0
LINE
  5
11B
330
1F
100
AcDbEntity
  8
0
  6
Continuous
 62
     7
100
AcDbLine
 10
47.0301617015058
 20
45.1549461513512
 30
0.0
 11
47.0301617015058
 21
45.0899461513512
 31
0.0
  0
LINE
  5
11C
330
1F
100
AcDbEntity
  8
0
  6
Continuous
 62
     7
100
AcDbLine
 10
46.89243893094097
 20
49.47229587613978
 30
0.0
 11
43.69243893094104
 21
49.47229587613977
 31
0.0
  0
LINE
  5
11D
330
1F
100
AcDbEntity
  8
0
  6
Continuous
 62
     7
100
AcDbLine
 10
43.69243893094104
 20
49.47229587613977
 30
0.0
 11
43.69243893094104
 21
46.1722958761398
 31
0.0
  0
LINE
  5
11E
330
1F
100
AcDbEntity
  8
0
  6
Continuous
 62
     7
100
AcDbLine
 10
38.89243893094347
 20
45.67229587614052
 30
0.0
 11
38.89243893094103
 21
47.97229587613964
 31
0.0
  0
LINE
  5
11F
330
1F
100
AcDbEntity
  8
0
  6
Continuous
 62
     7
100
AcDbLine
 10
41.6924389309407
 20
47.97229587613877
 30
0.0
 11
38.89243893094103
 21
47.97229587613964
 31
0.0
  0
LINE
  5
120
330
1F
100
AcDbEntity
  8
0
  6
Continuous
 62
     7
100
AcDbLine
 10
41.69243893093893
 20
45.67229587613966
 30
0.0
 11
41.6924389309407
 21
47.97229587613877
 31
0.0
  0
LINE
  5
121
330
1F
100
AcDbEntity
  8
0
  6
Continuous
 62
     7
100
AcDbLine
 10
36.21103006812423
 20
35.6049402343869
 30
0.0
 11
33.72739973523149
 21
36.89783635144269
 31
0.0
  0
LINE
  5
122
330
1F
100
AcDbEntity
  8
0
  6
Continuous
 62
     7
100
AcDbLine
 10
36.89243893094097
 20
49.47229587613971
 30
0.0
 11
33.69243893094104
 21
49.4722958761397
 31
0.0
  0
LINE
  5
123
330
1F
100
AcDbEntity
  8
0
  6
Continuous
 62
     7
100
AcDbLine
 10
35.49243893094105
 20
29.47229587613971
 30
0.0
 11
32.79243893094112
 21
29.47229587613969
 31
0.0
  0
LINE
  5
124
330
1F
100
AcDbEntity
  8
0
  6
Continuous
 62
     7
100
AcDbLine
 10
37.29243893094089
 20
31.27229587613948
 30
0.0
 11
35.49243893094105
 21
29.47229587613971
 31
0.0
  0
LINE
  5
125
330
1F
100
AcDbEntity
  8
0
  6
Continuous
 62
     7
100
AcDbLine
 10
36.89243893094103
 20
46.1722958761401
 30
0.0
 11
36.89243893094097
 21
49.47229587613971
 31
0.0
  0
LINE
  5
126
330
1F
100
AcDbEntity
  8
0
  6
Continuous
 62
     7
100
AcDbLine
 10
33.69243893094109
 20
46.17229587614007
 30
0.0
 11
36.89243893094103
 21
46.1722958761401
 31
0.0
  0
LINE
  5
127
330
1F
100
AcDbEntity
  8
0
  6
Continuous
 62
     7
100
AcDbLine
 10
33.89243893094103
 20
43.77229587613972
 30
0.0
 11
36.69243893094104
 21
43.77229587613975
 31
0.0
  0
LINE
  5
128
330
1F
100
AcDbEntity
  8
0
  6
Continuous
 62
     7
100
AcDbLine
 10
36.69243893094104
 20
41.47229587613978
 30
0.0
 11
36.69243893094104
 21
43.77229587613975
 31
0.0
  0
LINE
  5
129
330
1F
100
AcDbEntity
  8
0
  6
Continuous
 62
     7
100
AcDbLine
 10
33.89243893094103
 20
41.47229587613975
 30
0.0
 11
36.69243893094104
 21
41.47229587613978
 31
0.0
  0
LINE
  5
12A
330
1F
100
AcDbEntity
  8
0
  6
Continuous
 62
     7
100
AcDbLine
 10
33.89243893094103
 20
41.47229587613975
 30
0.0
 11
33.89243893094103
 21
43.77229587613972
 31
0.0
  0
LINE
  5
12B
330
1F
100
AcDbEntity
  8
0
  6
Continuous
 62
     7
100
AcDbLine
 10
37.27305187854991
 20
37.64506515070356
 30
0.0
 11
34.78942154566762
 21
38.93796126775392
 31
0.0
  0
LINE
  5
12C
330
1F
100
AcDbEntity
  8
0
  6
Continuous
 62
     7
100
AcDbLine
 10
36.21103006812423
 20
35.6049402343869
 30
0.0
 11
37.27305187854991
 21
37.64506515070356
 31
0.0
  0
LINE
  5
12D
330
1F
100
AcDbEntity
  8
0
  6
Continuous
 62
     7
100
AcDbLine
 10
35.49243893094105
 20
29.47229587613971
 30
0.0
 11
37.29243893094112
 21
29.47229587613973
 31
0.0
  0
LINE
  5
12E
330
1F
100
AcDbEntity
  8
0
  6
Continuous
 62
     7
100
AcDbLine
 10
37.29243893094112
 20
29.47229587613973
 30
0.0
 11
37.29243893094112
 21
30.22229587613968
 31
0.0
  0
LINE
  5
12F
330
1F
100
AcDbEntity
  8
0
  6
Continuous
 62
     7
100
AcDbLine
 10
38.69243893094115
 20
29.59363794342926
 30
0.0
 11
38.69243893094109
 21
31.2722958761397
 31
0.0
  0
LINE
  5
130
330
1F
100
AcDbEntity
  8
0
  6
Continuous
 62
     7
100
AcDbLine
 10
38.93021659547817
 20
28.99363794347788
 30
0.0
 11
38.66167420074159
 21
28.99363794342925
 31
0.0
  0
LINE
  5
131
330
1F
100
AcDbEntity
  8
0
  6
Continuous
 62
     7
100
AcDbLine
 10
38.69243893094115
 20
29.59363794342926
 30
0.0
 11
38.09243893094113
 21
28.99363794342925
 31
0.0
  0
LINE
  5
132
330
1F
100
AcDbEntity
  8
0
  6
Continuous
 62
     7
100
AcDbLine
 10
38.10668963150171
 20
28.99363794342925
 30
0.0
 11
38.09243893094113
 21
28.99363794342925
 31
0.0
  0
LINE
  5
133
330
1F
100
AcDbEntity
  8
0
  6
Continuous
 62
     7
100
AcDbLine
 10
38.66167420074159
 20
28.99363794342925
 30
0.0
 11
38.57531909103103
 21
28.99363794342925
 31
0.0
  0
LINE
  5
134
330
1F
100
AcDbEntity
  8
0
  6
Continuous
 62
     7
100
AcDbLine
 10
37.49243893094111
 20
27.92229587613964
 30
0.0
 11
37.49243893094111
 21
28.27229587613965
 31
0.0
  0
LINE
  5
135
330
1F
100
AcDbEntity
  8
0
  6
Continuous
 62
     7
100
AcDbLine
 10
39.12571274198332
 20
27.32800470613465
 30
0.0
 11
39.12571274198332
 21
27.45343869763036
 31
0.0
  0
LINE
  5
136
330
1F
100
AcDbEntity
  8
0
  6
Continuous
 62
     7
100
AcDbLine
 10
37.40323488830241
 20
28.29363794342925
 30
0.0
 11
38.07806230161903
 21
28.29363794342925
 31
0.0
  0
LINE
  5
137
330
1F
100
AcDbEntity
  8
0
  6
Continuous
 62
     7
100
AcDbLine
 10
37.5137809982307
 20
28.29363794342924
 30
0.0
 11
37.49243893094111
 21
28.27229587613965
 31
0.0
  0
LINE
  5
138
330
1F
100
AcDbEntity
  8
0
  6
Continuous
 62
     7
100
AcDbLine
 10
39.48830393094114
 20
27.23007396370463
 30
0.0
 11
39.48830393094114
 21
27.4020326526829
 31
0.0
  0
LINE
  5
139
330
1F
100
AcDbEntity
  8
0
  6
Continuous
 62
     7
100
AcDbLine
 10
41.89243893094114
 20
29.59363794342928
 30
0.0
 11
42.49243893094111
 21
28.99363794342928
 31
0.0
  0
LINE
  5
13A
330
1F
100
AcDbEntity
  8
0
  6
Continuous
 62
     7
100
AcDbLine
 10
40.29243893094112
 20
35.15102533223919
 30
0.0
 11
42.56487645522942
 21
33.84000368361137
 31
0.0
  0
LINE
  5
13B
330
1F
100
AcDbEntity
  8
0
  6
Continuous
 62
     7
100
AcDbLine
 10
40.29243893094112
 20
32.27785228201068
 30
0.0
 11
42.63983482325286
 21
33.63211914295972
 31
0.0
  0
LINE
  5
13C
330
1F
100
AcDbEntity
  8
0
  6
Continuous
 62
     7
100
AcDbLine
 10
42.63983482325286
 20
33.96993152151866
 30
0.0
 11
40.29243893094112
 21
35.32419838246769
 31
0.0
  0
LINE
  5
13D
330
1F
100
AcDbEntity
  8
0
  6
Continuous
 62
     7
100
AcDbLine
 10
40.29243893094112
 20
35.32419838246769
 30
0.0
 11
37.94504303862949
 21
33.96993152151862
 31
0.0
  0
LINE
  5
13E
330
1F
100
AcDbEntity
  8
0
  6
Continuous
 62
     7
100
AcDbLine
 10
37.94504303862949
 20
33.6321191429597
 30
0.0
 11
40.29243893094112
 21
32.27785228201068
 31
0.0
  0
LINE
  5
13F
330
1F
100
AcDbEntity
  8
0
  6
Continuous
 62
     7
100
AcDbLine
 10
38.69243893094104
 20
39.87229587613963
 30
0.0
 11
41.89243893094108
 21
39.87229587613965
 31
0.0
  0
LINE
  5
140
330
1F
100
AcDbEntity
  8
0
  6
Continuous
 62
     7
100
AcDbLine
 10
38.02000140665292
 20
33.84000368361134
 30
0.0
 11
40.29243893094112
 21
35.15102533223919
 31
0.0
  0
LINE
  5
141
330
1F
100
AcDbEntity
  8
0
  6
Continuous
 62
     7
100
AcDbLine
 10
39.48243893094106
 20
33.89102533223918
 30
0.0
 11
39.21243893094108
 21
33.89102533223918
 31
0.0
  0
LINE
  5
142
330
1F
100
AcDbEntity
  8
0
  6
Continuous
 62
     7
100
AcDbLine
 10
39.48243893094106
 20
34.2992734684242
 30
0.0
 11
39.48243893094106
 21
33.89102533223918
 31
0.0
  0
LINE
  5
143
330
1F
100
AcDbEntity
  8
0
  6
Continuous
 62
     7
100
AcDbLine
 10
39.25741395175506
 20
34.16945136504769
 30
0.0
 11
39.48243893094106
 21
34.2992734684242
 31
0.0
  0
LINE
  5
144
330
1F
100
AcDbEntity
  8
0
  6
Continuous
 62
     7
100
AcDbLine
 10
39.52746391012705
 20
34.53305707822872
 30
0.0
 11
39.16746391012704
 21
34.32536477053645
 31
0.0
  0
LINE
  5
145
330
1F
100
AcDbEntity
  8
0
  6
Continuous
 62
     7
100
AcDbLine
 10
40.29243893094112
 20
32.45102533223918
 30
0.0
 11
38.02000140665292
 21
33.76204698086698
 31
0.0
  0
LINE
  5
146
330
1F
100
AcDbEntity
  8
0
  6
Continuous
 62
     7
100
AcDbLine
 10
39.21243893094108
 20
33.71102533223919
 30
0.0
 11
39.48243893094106
 21
33.71102533223919
 31
0.0
  0
LINE
  5
147
330
1F
100
AcDbEntity
  8
0
  6
Continuous
 62
     7
100
AcDbLine
 10
39.16746391012704
 20
33.27668589394189
 30
0.0
 11
39.52746391012705
 21
33.06899358624959
 31
0.0
  0
LINE
  5
148
330
1F
100
AcDbEntity
  8
0
  6
Continuous
 62
     7
100
AcDbLine
 10
39.48243893094106
 20
33.30277719605415
 30
0.0
 11
39.25741395175506
 21
33.43259929943066
 31
0.0
  0
LINE
  5
149
330
1F
100
AcDbEntity
  8
0
  6
Continuous
 62
     7
100
AcDbLine
 10
39.48243893094106
 20
33.71102533223919
 30
0.0
 11
39.48243893094106
 21
33.30277719605415
 31
0.0
  0
LINE
  5
14A
330
1F
100
AcDbEntity
  8
0
  6
Continuous
 62
     7
100
AcDbLine
 10
39.97593602551952
 20
32.89282621930566
 30
0.0
 11
40.29243893094112
 21
33.44102533223921
 31
0.0
  0
LINE
  5
14B
330
1F
100
AcDbEntity
  8
0
  6
Continuous
 62
     7
100
AcDbLine
 10
40.25346778777085
 20
33.7335253322392
 30
0.0
 11
40.02243893094114
 21
33.33337161419554
 31
0.0
  0
LINE
  5
14C
330
1F
100
AcDbEntity
  8
0
  6
Continuous
 62
     7
100
AcDbLine
 10
41.01238897256918
 20
34.55903302775909
 30
0.0
 11
40.42741395175513
 21
34.89651861669033
 31
0.0
  0
LINE
  5
14D
330
1F
100
AcDbEntity
  8
0
  6
Continuous
 62
     7
100
AcDbLine
 10
40.337463910127
 20
34.74060521120154
 30
0.0
 11
40.92243893094111
 21
34.40311962227038
 31
0.0
  0
LINE
  5
14E
330
1F
100
AcDbEntity
  8
0
  6
Continuous
 62
     7
100
AcDbLine
 10
40.29243893094112
 20
33.44102533223921
 30
0.0
 11
40.60894183636283
 21
32.89282621930566
 31
0.0
  0
LINE
  5
14F
330
1F
100
AcDbEntity
  8
0
  6
Continuous
 62
     7
100
AcDbLine
 10
40.56243893094116
 20
33.33337161419554
 30
0.0
 11
40.33141007411139
 21
33.7335253322392
 31
0.0
  0
LINE
  5
150
330
1F
100
AcDbEntity
  8
0
  6
Continuous
 62
     7
100
AcDbLine
 10
40.92243893094111
 20
34.40311962227038
 30
0.0
 11
40.92243893094117
 21
33.14695028899399
 31
0.0
  0
LINE
  5
151
330
1F
100
AcDbEntity
  8
0
  6
Continuous
 62
     7
100
AcDbLine
 10
40.5624389309411
 20
34.24717736262826
 30
0.0
 11
40.56243893094116
 21
33.33337161419554
 31
0.0
  0
LINE
  5
152
330
1F
100
AcDbEntity
  8
0
  6
Continuous
 62
     7
100
AcDbLine
 10
39.66243893094112
 20
33.14695028899398
 30
0.0
 11
39.66243893094107
 21
34.45510037548438
 31
0.0
  0
LINE
  5
153
330
1F
100
AcDbEntity
  8
0
  6
Continuous
 62
     7
100
AcDbLine
 10
41.28243893094107
 20
34.24740806779211
 30
0.0
 11
41.28243893094107
 21
33.35464259668626
 31
0.0
  0
LINE
  5
154
330
1F
100
AcDbEntity
  8
0
  6
Continuous
 62
     7
100
AcDbLine
 10
41.46243893094102
 20
33.35464259668626
 30
0.0
 11
41.46243893094102
 21
34.24740806779211
 31
0.0
  0
LINE
  5
155
330
1F
100
AcDbEntity
  8
0
  6
Continuous
 62
     7
100
AcDbLine
 10
39.84243893094113
 20
34.66279268317669
 30
0.0
 11
39.84243893094113
 21
32.92859665798983
 31
0.0
  0
LINE
  5
156
330
1F
100
AcDbEntity
  8
0
  6
Continuous
 62
     7
100
AcDbLine
 10
40.74243893094116
 20
32.92859665798984
 30
0.0
 11
40.74243893094111
 21
34.24717736262826
 31
0.0
  0
LINE
  5
157
330
1F
100
AcDbEntity
  8
0
  6
Continuous
 62
     7
100
AcDbLine
 10
41.10243893094112
 20
33.14695028899399
 30
0.0
 11
41.10243893094112
 21
34.40311962227038
 31
0.0
  0
LINE
  5
158
330
1F
100
AcDbEntity
  8
0
  6
Continuous
 62
     7
100
AcDbLine
 10
40.02243893094114
 20
33.33337161419554
 30
0.0
 11
40.02243893094108
 21
34.66279268317669
 31
0.0
  0
LINE
  5
159
330
1F
100
AcDbEntity
  8
0
  6
Continuous
 62
     7
100
AcDbLine
 10
42.56487645522942
 20
33.76204698086701
 30
0.0
 11
40.29243893094112
 21
32.45102533223918
 31
0.0
  0
LINE
  5
15A
330
1F
100
AcDbEntity
  8
0
  6
Continuous
 62
     7
100
AcDbLine
 10
41.89243893094114
 20
31.27229587613972
 30
0.0
 11
38.69243893094109
 21
31.2722958761397
 31
0.0
  0
LINE
  5
15B
330
1F
100
AcDbEntity
  8
0
  6
Continuous
 62
     7
100
AcDbLine
 10
38.69243893094109
 20
31.2722958761397
 30
0.0
 11
37.29243893094089
 21
31.27229587613948
 31
0.0
  0
LINE
  5
15C
330
1F
100
AcDbEntity
  8
0
  6
Continuous
 62
     7
100
AcDbLine
 10
43.29243893094129
 20
31.27229587613958
 30
0.0
 11
41.89243893094114
 21
31.27229587613972
 31
0.0
  0
LINE
  5
15D
330
1F
100
AcDbEntity
  8
0
  6
Continuous
 62
     7
100
AcDbLine
 10
38.07806230161903
 20
28.29363794342925
 30
0.0
 11
38.16417679656554
 21
28.29363794342925
 31
0.0
  0
LINE
  5
15E
330
1F
100
AcDbEntity
  8
0
  6
Continuous
 62
     7
100
AcDbLine
 10
41.89243893094114
 20
29.59363794342928
 30
0.0
 11
41.89243893094114
 21
31.27229587613972
 31
0.0
  0
LINE
  5
15F
330
1F
100
AcDbEntity
  8
0
  6
Continuous
 62
     7
100
AcDbLine
 10
42.43139095290162
 20
28.29363794342926
 30
0.0
 11
42.51755020812398
 21
28.29363794342928
 31
0.0
  0
LINE
  5
160
330
1F
100
AcDbEntity
  8
0
  6
Continuous
 62
     7
100
AcDbLine
 10
42.0199661546816
 20
28.9936379434779
 30
0.0
 11
41.93353146136117
 21
28.99363794344942
 31
0.0
  0
LINE
  5
161
330
1F
100
AcDbEntity
  8
0
  6
Continuous
 62
     7
100
AcDbLine
 10
42.49243893094111
 20
28.99363794342928
 30
0.0
 11
42.47818823038058
 21
28.99363794342928
 31
0.0
  0
LINE
  5
162
330
1F
100
AcDbEntity
  8
0
  6
Continuous
 62
     7
100
AcDbLine
 10
40.55419042864135
 20
28.29363794342926
 30
0.0
 11
40.55419042863248
 21
28.99363794346781
 31
0.0
  0
LINE
  5
163
330
1F
100
AcDbEntity
  8
0
  6
Continuous
 62
     7
100
AcDbLine
 10
40.55419042864135
 20
28.29363794342926
 30
0.0
 11
42.16501366737016
 21
28.29363794342926
 31
0.0
  0
LINE
  5
164
330
1F
100
AcDbEntity
  8
0
  6
Continuous
 62
     7
100
AcDbLine
 10
41.93353146136117
 20
28.99363794344942
 30
0.0
 11
41.66775687795816
 21
28.99363794342927
 31
0.0
  0
LINE
  5
165
330
1F
100
AcDbEntity
  8
0
  6
Continuous
 62
     7
100
AcDbLine
 10
40.05419042865084
 20
28.9936379434672
 30
0.0
 11
40.05419042864135
 21
28.29363794342926
 31
0.0
  0
LINE
  5
166
330
1F
100
AcDbEntity
  8
0
  6
Continuous
 62
     7
100
AcDbLine
 10
38.43263254205176
 20
28.29363794342925
 30
0.0
 11
40.05419042864135
 21
28.29363794342926
 31
0.0
  0
LINE
  5
167
330
1F
100
AcDbEntity
  8
0
  6
Continuous
 62
     7
100
AcDbLine
 10
38.69243893094115
 20
30.22229587613969
 30
0.0
 11
37.29243893094112
 21
30.22229587613968
 31
0.0
  0
LINE
  5
168
330
1F
100
AcDbEntity
  8
0
  6
Continuous
 62
     7
100
AcDbLine
 10
43.29243893094112
 20
30.22229587613971
 30
0.0
 11
41.89243893094114
 21
30.22229587613971
 31
0.0
  0
LINE
  5
169
330
1F
100
AcDbEntity
  8
0
  6
Continuous
 62
     7
100
AcDbLine
 10
40.55419042863248
 20
28.99363794346781
 30
0.0
 11
40.05419042865084
 21
28.9936379434672
 31
0.0
  0
LINE
  5
16A
330
1F
100
AcDbEntity
  8
0
  6
Continuous
 62
     7
100
AcDbLine
 10
38.69243893094115
 20
29.59363794342926
 30
0.0
 11
41.89243893094114
 21
29.59363794342928
 31
0.0
  0
LINE
  5
16B
330
1F
100
AcDbEntity
  8
0
  6
Continuous
 62
     7
100
AcDbLine
 10
42.51755020812398
 20
28.29363794342928
 30
0.0
 11
43.18164297357988
 21
28.29363794342928
 31
0.0
  0
LINE
  5
16C
330
1F
100
AcDbEntity
  8
0
  6
Continuous
 62
     7
100
AcDbLine
 10
37.49243893094111
 20
27.97229587613966
 30
0.0
 11
32.29243893094106
 21
27.97229587613963
 31
0.0
  0
LINE
  5
16D
330
1F
100
AcDbEntity
  8
0
  6
Continuous
 62
     7
100
AcDbLine
 10
43.09243893094113
 20
28.27229587613968
 30
0.0
 11
40.29243893094112
 21
28.27229587613966
 31
0.0
  0
LINE
  5
16E
330
1F
100
AcDbEntity
  8
0
  6
Continuous
 62
     7
100
AcDbLine
 10
40.29243893094112
 20
28.27229587613966
 30
0.0
 11
37.49243893094111
 21
28.27229587613965
 31
0.0
  0
LINE
  5
16F
330
1F
100
AcDbEntity
  8
0
  6
Continuous
 62
     7
100
AcDbLine
 10
41.96918801269307
 20
28.10068282645887
 30
0.0
 11
42.53487343764228
 21
28.10068282645888
 31
0.0
  0
LINE
  5
170
330
1F
100
AcDbEntity
  8
0
  6
Continuous
 62
     7
100
AcDbLine
 10
48.29243893094117
 20
27.97229587613973
 30
0.0
 11
43.09243893094113
 21
27.97229587613969
 31
0.0
  0
LINE
  5
171
330
1F
100
AcDbEntity
  8
0
  6
Continuous
 62
     7
100
AcDbLine
 10
43.07109686365153
 20
28.29363794342928
 30
0.0
 11
43.09243893094113
 21
28.27229587613968
 31
0.0
  0
LINE
  5
172
330
1F
100
AcDbEntity
  8
0
  6
Continuous
 62
     7
100
AcDbLine
 10
52.29243893094106
 20
47.97229587613978
 30
0.0
 11
52.29243893094117
 21
31.97229587613975
 31
0.0
  0
LINE
  5
173
330
1F
100
AcDbEntity
  8
0
  6
Continuous
 62
     7
100
AcDbLine
 10
41.89243893094108
 20
43.27229587613961
 30
0.0
 11
38.69243893094104
 21
43.27229587613959
 31
0.0
  0
LINE
  5
174
330
1F
100
AcDbEntity
  8
0
  6
Continuous
 62
     7
100
AcDbLine
 10
42.32629995833061
 20
44.46122099704847
 30
0.0
 11
42.05868891244502
 21
44.46122099704847
 31
0.0
  0
LINE
  5
175
330
1F
100
AcDbEntity
  8
0
  6
Continuous
 62
     7
100
AcDbLine
 10
42.32629995833061
 20
44.37654899704847
 30
0.0
 11
42.32629995833061
 21
44.46122099704847
 31
0.0
  0
LINE
  5
176
330
1F
100
AcDbEntity
  8
0
  6
Continuous
 62
     7
100
AcDbLine
 10
42.05868891244502
 20
44.37654899704847
 30
0.0
 11
42.32629995833061
 21
44.37654899704847
 31
0.0
  0
LINE
  5
177
330
1F
100
AcDbEntity
  8
0
  6
Continuous
 62
     7
100
AcDbLine
 10
42.05868891244502
 20
44.46122099704847
 30
0.0
 11
42.05868891244502
 21
44.37654899704847
 31
0.0
  0
LINE
  5
178
330
1F
100
AcDbEntity
  8
0
  6
Continuous
 62
     7
100
AcDbLine
 10
41.89956883110763
 20
44.26232089537676
 30
0.0
 11
41.89956883110763
 21
44.17764889537676
 31
0.0
  0
LINE
  5
179
330
1F
100
AcDbEntity
  8
0
  6
Continuous
 62
     7
100
AcDbLine
 10
42.485420039668
 20
44.26232089537676
 30
0.0
 11
41.89956883110763
 21
44.26232089537676
 31
0.0
  0
LINE
  5
17A
330
1F
100
AcDbEntity
  8
0
  6
Continuous
 62
     7
100
AcDbLine
 10
42.485420039668
 20
44.17764889537676
 30
0.0
 11
42.485420039668
 21
44.26232089537676
 31
0.0
  0
LINE
  5
17B
330
1F
100
AcDbEntity
  8
0
  6
Continuous
 62
     7
100
AcDbLine
 10
41.89956883110763
 20
44.17764889537676
 30
0.0
 11
42.485420039668
 21
44.17764889537676
 31
0.0
  0
LINE
  5
17C
330
1F
100
AcDbEntity
  8
0
  6
Continuous
 62
     7
100
AcDbLine
 10
42.14901069918581
 20
43.97874879370508
 30
0.0
 11
42.14901069918581
 21
43.59730958542662
 31
0.0
  0
LINE
  5
17D
330
1F
100
AcDbEntity
  8
0
  6
Continuous
 62
     7
100
AcDbLine
 10
42.23368269918582
 20
43.59730958542662
 30
0.0
 11
42.23368269918582
 21
43.97874879370508
 31
0.0
  0
LINE
  5
17E
330
1F
100
AcDbEntity
  8
0
  6
Continuous
 62
     7
100
AcDbLine
 10
42.14901069918581
 20
43.59730958542662
 30
0.0
 11
42.23368269918582
 21
43.59730958542662
 31
0.0
  0
LINE
  5
17F
330
1F
100
AcDbEntity
  8
0
  6
Continuous
 62
     7
100
AcDbLine
 10
42.64454012100534
 20
44.06342079370508
 30
0.0
 11
41.7404487497703
 21
44.06342079370508
 31
0.0
  0
LINE
  5
180
330
1F
100
AcDbEntity
  8
0
  6
Continuous
 62
     7
100
AcDbLine
 10
41.7404487497703
 20
43.97874879370508
 30
0.0
 11
42.14901069918581
 21
43.97874879370508
 31
0.0
  0
LINE
  5
181
330
1F
100
AcDbEntity
  8
0
  6
Continuous
 62
     7
100
AcDbLine
 10
42.23368269918582
 20
43.97874879370508
 30
0.0
 11
42.64454012100534
 21
43.97874879370508
 31
0.0
  0
LINE
  5
182
330
1F
100
AcDbEntity
  8
0
  6
Continuous
 62
     7
100
AcDbLine
 10
42.64454012100534
 20
43.97874879370508
 30
0.0
 11
42.64454012100534
 21
44.06342079370508
 31
0.0
  0
LINE
  5
183
330
1F
100
AcDbEntity
  8
0
  6
Continuous
 62
     7
100
AcDbLine
 10
50.79243893094106
 20
41.57229587613979
 30
0.0
 11
50.792438930941
 21
47.47229587613981
 31
0.0
  0
LINE
  5
184
330
1F
100
AcDbEntity
  8
0
  6
Continuous
 62
     7
100
AcDbLine
 10
49.29243893094106
 20
41.57229587613978
 30
0.0
 11
49.29243893094106
 21
38.37229587613976
 31
0.0
  0
LINE
  5
185
330
1F
100
AcDbEntity
  8
0
  6
Continuous
 62
     7
100
AcDbLine
 10
47.04641170150582
 20
45.00869615135119
 30
0.0
 11
47.11141170150582
 21
44.91119615135121
 31
0.0
  0
LINE
  5
186
330
1F
100
AcDbEntity
  8
0
  6
Continuous
 62
     7
100
AcDbLine
 10
47.6964117015058
 20
44.91119615135121
 30
0.0
 11
47.76141170150579
 21
45.0086961513512
 31
0.0
  0
LINE
  5
187
330
1F
100
AcDbEntity
  8
0
  6
Continuous
 62
     7
100
AcDbLine
 10
47.6314117015058
 20
44.84619615135119
 30
0.0
 11
47.6964117015058
 21
44.91119615135121
 31
0.0
  0
LINE
  5
188
330
1F
100
AcDbEntity
  8
0
  6
Continuous
 62
     7
100
AcDbLine
 10
47.4364117015058
 20
44.94369615135119
 30
0.0
 11
47.37141170150581
 21
44.94369615135119
 31
0.0
  0
LINE
  5
189
330
1F
100
AcDbEntity
  8
0
  6
Continuous
 62
     7
100
AcDbLine
 10
47.77766170150581
 20
45.1549461513512
 30
0.0
 11
47.59891170150583
 21
45.1549461513512
 31
0.0
  0
LINE
  5
18A
330
1F
100
AcDbEntity
  8
0
  6
Continuous
 62
     7
100
AcDbLine
 10
47.20891170150578
 20
45.1549461513512
 30
0.0
 11
47.2251617015058
 21
45.2036961513512
 31
0.0
  0
LINE
  5
18B
330
1F
100
AcDbEntity
  8
0
  6
Continuous
 62
     7
100
AcDbLine
 10
47.77766170150581
 20
45.0899461513512
 30
0.0
 11
47.77766170150581
 21
45.1549461513512
 31
0.0
  0
LINE
  5
18C
330
1F
100
AcDbEntity
  8
0
  6
Continuous
 62
     7
100
AcDbLine
 10
47.59891170150583
 20
45.1549461513512
 30
0.0
 11
47.59891170150583
 21
45.0899461513512
 31
0.0
  0
LINE
  5
18D
330
1F
100
AcDbEntity
  8
0
  6
Continuous
 62
     7
100
AcDbLine
 10
47.20891170150578
 20
45.0899461513512
 30
0.0
 11
47.20891170150578
 21
45.1549461513512
 31
0.0
  0
LINE
  5
18E
330
1F
100
AcDbEntity
  8
0
  6
Continuous
 62
     7
100
AcDbLine
 10
47.11141170150582
 20
44.91119615135121
 30
0.0
 11
47.17641170150581
 21
44.84619615135119
 31
0.0
  0
LINE
  5
18F
330
1F
100
AcDbEntity
  8
0
  6
Continuous
 62
     7
100
AcDbLine
 10
47.04641170150582
 20
45.23619615135119
 30
0.0
 11
47.0301617015058
 21
45.1549461513512
 31
0.0
  0
LINE
  5
190
330
1F
100
AcDbEntity
  8
0
  6
Continuous
 62
     7
100
AcDbLine
 10
47.17641170150581
 20
44.84619615135119
 30
0.0
 11
47.27391170150584
 21
44.7974461513512
 31
0.0
  0
LINE
  5
191
330
1F
100
AcDbEntity
  8
0
  6
Continuous
 62
     7
100
AcDbLine
 10
47.27391170150584
 20
44.7974461513512
 30
0.0
 11
47.35516170150579
 21
44.7811961513512
 31
0.0
  0
LINE
  5
192
330
1F
100
AcDbEntity
  8
0
  6
Continuous
 62
     7
100
AcDbLine
 10
47.25766170150583
 20
44.99244615135119
 30
0.0
 11
47.2251617015058
 21
45.04119615135119
 31
0.0
  0
LINE
  5
193
330
1F
100
AcDbEntity
  8
0
  6
Continuous
 62
     7
100
AcDbLine
 10
47.30641170150581
 20
44.95994615135119
 30
0.0
 11
47.25766170150583
 21
44.99244615135119
 31
0.0
  0
LINE
  5
194
330
1F
100
AcDbEntity
  8
0
  6
Continuous
 62
     7
100
AcDbLine
 10
47.76141170150579
 20
45.0086961513512
 30
0.0
 11
47.77766170150581
 21
45.0899461513512
 31
0.0
  0
LINE
  5
195
330
1F
100
AcDbEntity
  8
0
  6
Continuous
 62
     7
100
AcDbLine
 10
47.59891170150583
 20
45.0899461513512
 30
0.0
 11
47.58266170150581
 21
45.04119615135119
 31
0.0
  0
LINE
  5
196
330
1F
100
AcDbEntity
  8
0
  6
Continuous
 62
     7
100
AcDbLine
 10
47.2251617015058
 20
45.04119615135119
 30
0.0
 11
47.20891170150578
 21
45.0899461513512
 31
0.0
  0
LINE
  5
197
330
1F
100
AcDbEntity
  8
0
  6
Continuous
 62
     7
100
AcDbLine
 10
47.53391170150583
 20
44.7974461513512
 30
0.0
 11
47.6314117015058
 21
44.84619615135119
 31
0.0
  0
LINE
  5
198
330
1F
100
AcDbEntity
  8
0
  6
Continuous
 62
     7
100
AcDbLine
 10
47.58266170150581
 20
45.04119615135119
 30
0.0
 11
47.55016170150579
 21
44.9924461513512
 31
0.0
  0
LINE
  5
199
330
1F
100
AcDbEntity
  8
0
  6
Continuous
 62
     7
100
AcDbLine
 10
47.55016170150579
 20
44.9924461513512
 30
0.0
 11
47.5014117015058
 21
44.9599461513512
 31
0.0
  0
LINE
  5
19A
330
1F
100
AcDbEntity
  8
0
  6
Continuous
 62
     7
100
AcDbLine
 10
47.5014117015058
 20
44.9599461513512
 30
0.0
 11
47.4364117015058
 21
44.94369615135119
 31
0.0
  0
LINE
  5
19B
330
1F
100
AcDbEntity
  8
0
  6
Continuous
 62
     7
100
AcDbLine
 10
47.45266170150582
 20
44.7811961513512
 30
0.0
 11
47.53391170150583
 21
44.7974461513512
 31
0.0
  0
LINE
  5
19C
330
1F
100
AcDbEntity
  8
0
  6
Continuous
 62
     7
100
AcDbLine
 10
47.37141170150581
 20
44.94369615135119
 30
0.0
 11
47.30641170150581
 21
44.95994615135119
 31
0.0
  0
LINE
  5
19D
330
1F
100
AcDbEntity
  8
0
  6
Continuous
 62
     7
100
AcDbLine
 10
47.35516170150579
 20
44.7811961513512
 30
0.0
 11
47.45266170150582
 21
44.7811961513512
 31
0.0
  0
LINE
  5
19E
330
1F
100
AcDbEntity
  8
0
  6
Continuous
 62
     7
100
AcDbLine
 10
49.79243893094106
 20
41.57229587613978
 30
0.0
 11
49.79243893094106
 21
41.4722958761398
 31
0.0
  0
LINE
  5
19F
330
1F
100
AcDbEntity
  8
0
  6
Continuous
 62
     7
100
AcDbLine
 10
49.79243893094106
 20
38.4722958761398
 30
0.0
 11
49.79243893094106
 21
38.37229587613977
 31
0.0
  0
LINE
  5
1A0
330
1F
100
AcDbEntity
  8
0
  6
Continuous
 62
     7
100
AcDbLine
 10
46.69243893094098
 20
41.47229587613984
 30
0.0
 11
46.69243893094098
 21
43.77229587613981
 31
0.0
  0
LINE
  5
1A1
330
1F
100
AcDbEntity
  8
0
  6
Continuous
 62
     7
100
AcDbLine
 10
46.69243893094098
 20
41.47229587613984
 30
0.0
 11
43.89243893094103
 21
41.47229587613983
 31
0.0
  0
LINE
  5
1A2
330
1F
100
AcDbEntity
  8
0
  6
Continuous
 62
     7
100
AcDbLine
 10
43.89243893094103
 20
41.47229587613983
 30
0.0
 11
43.89243893094097
 21
43.77229587613979
 31
0.0
  0
LINE
  5
1A3
330
1F
100
AcDbEntity
  8
0
  6
Continuous
 62
     7
100
AcDbLine
 10
43.89243893094097
 20
43.77229587613979
 30
0.0
 11
46.69243893094098
 21
43.77229587613981
 31
0.0
  0
LINE
  5
1A4
330
1F
100
AcDbEntity
  8
0
  6
Continuous
 62
     7
100
AcDbLine
 10
37.49243893094111
 20
27.92229587613964
 30
0.0
 11
41.96918801269307
 21
27.92229587613967
 31
0.0
  0
LINE
  5
1A5
330
1F
100
AcDbEntity
  8
0
  6
Continuous
 62
     7
100
AcDbLine
 10
45.09243893094119
 20
29.47229587613971
 30
0.0
 11
43.29243893094129
 21
31.27229587613958
 31
0.0
  0
LINE
  5
1A6
330
1F
100
AcDbEntity
  8
0
  6
Continuous
 62
     7
100
AcDbLine
 10
45.30464229888459
 20
33.38376451211119
 30
0.0
 11
46.8284127225602
 21
30.45662876262304
 31
0.0
  0
LINE
  5
1A7
330
1F
100
AcDbEntity
  8
0
  6
Continuous
 62
     7
100
AcDbLine
 10
48.1430769650549
 20
34.86136007446329
 30
0.0
 11
45.30464229888459
 21
33.38376451211119
 31
0.0
  0
LINE
  5
1A8
330
1F
100
AcDbEntity
  8
0
  6
Continuous
 62
     7
100
AcDbLine
 10
49.59243893094107
 20
41.4722958761398
 30
0.0
 11
49.59243893094107
 21
38.4722958761398
 31
0.0
  0
LINE
  5
1A9
330
1F
100
AcDbEntity
  8
0
  6
Continuous
 62
     7
100
AcDbLine
 10
49.59243893094107
 20
38.37229587613977
 30
0.0
 11
49.59243893094107
 21
38.4722958761398
 31
0.0
  0
LINE
  5
1AA
330
1F
100
AcDbEntity
  8
0
  6
Continuous
 62
     7
100
AcDbLine
 10
49.59243893094107
 20
38.37229587613977
 30
0.0
 11
49.29243893094106
 21
38.37229587613976
 31
0.0
  0
LINE
  5
1AB
330
1F
100
AcDbEntity
  8
0
  6
Continuous
 62
     7
100
AcDbLine
 10
46.85747812665325
 20
36.89783635144305
 30
0.0
 11
45.79545631619858
 21
38.93796126774464
 31
0.0
  0
LINE
  5
1AC
330
1F
100
AcDbEntity
  8
0
  6
Continuous
 62
     7
100
AcDbLine
 10
47.79243893094117
 20
29.47229587613975
 30
0.0
 11
45.09243893094119
 21
29.47229587613971
 31
0.0
  0
LINE
  5
1AD
330
1F
100
AcDbEntity
  8
0
  6
Continuous
 62
     7
100
AcDbLine
 10
43.3118259833155
 20
37.64506515069581
 30
0.0
 11
44.37384779375789
 21
35.60494023438781
 31
0.0
  0
LINE
  5
1AE
330
1F
100
AcDbEntity
  8
0
  6
Continuous
 62
     7
100
AcDbLine
 10
45.79545631619858
 20
38.93796126774464
 30
0.0
 11
43.3118259833155
 21
37.64506515069581
 31
0.0
  0
LINE
  5
1AF
330
1F
100
AcDbEntity
  8
0
  6
Continuous
 62
     7
100
AcDbLine
 10
46.85747812665325
 20
36.89783635144305
 30
0.0
 11
44.37384779375789
 21
35.60494023438781
 31
0.0
  0
LINE
  5
1B0
330
1F
100
AcDbEntity
  8
0
  6
Continuous
 62
     7
100
AcDbLine
 10
43.29243893094112
 20
30.22229587613971
 30
0.0
 11
43.29243893094112
 21
29.47229587613976
 31
0.0
  0
LINE
  5
1B1
330
1F
100
AcDbEntity
  8
0
  6
Continuous
 62
     7
100
AcDbLine
 10
43.29243893094112
 20
29.47229587613976
 30
0.0
 11
45.09243893094119
 21
29.47229587613971
 31
0.0
  0
LINE
  5
1B2
330
1F
100
AcDbEntity
  8
0
  6
Continuous
 62
     7
100
AcDbLine
 10
41.96918801269307
 20
27.92229587613967
 30
0.0
 11
41.96918801269307
 21
28.10068282645887
 31
0.0
  0
LINE
  5
1B3
330
1F
100
AcDbEntity
  8
0
  6
Continuous
 62
     7
100
AcDbLine
 10
42.53487343764228
 20
27.92229587613968
 30
0.0
 11
42.53487343764228
 21
28.10068282645888
 31
0.0
  0
LINE
  5
1B4
330
1F
100
AcDbEntity
  8
0
  6
Continuous
 62
     7
100
AcDbLine
 10
42.53487343764228
 20
27.92229587613968
 30
0.0
 11
43.09243893094113
 21
27.92229587613968
 31
0.0
  0
LINE
  5
1B5
330
1F
100
AcDbEntity
  8
0
  6
Continuous
 62
     7
100
AcDbLine
 10
43.09243893094113
 20
27.92229587613968
 30
0.0
 11
43.09243893094113
 21
28.27229587613968
 31
0.0
  0
LINE
  5
1B6
330
1F
100
AcDbEntity
  8
0
  6
Continuous
 62
     7
100
AcDbLine
 10
50.79243893094106
 20
38.37229587613977
 30
0.0
 11
50.792438930941
 21
32.47229587613981
 31
0.0
  0
LINE
  5
1B7
330
1F
100
AcDbEntity
  8
0
  6
Continuous
 62
     7
100
AcDbLine
 10
46.8284127225602
 20
30.45662876262304
 30
0.0
 11
49.66684738873052
 21
31.93422432497518
 31
0.0
  0
LINE
  5
1B8
330
1F
100
AcDbEntity
  8
0
  6
Continuous
 62
     7
100
AcDbLine
 10
49.66684738873052
 20
31.93422432497518
 30
0.0
 11
48.1430769650549
 21
34.86136007446329
 31
0.0
  0
LINE
  5
1B9
330
1F
100
AcDbEntity
  8
0
  6
Continuous
 62
     7
100
AcDbLine
 10
49.59243893094107
 20
41.4722958761398
 30
0.0
 11
49.59243893094107
 21
41.57229587613978
 31
0.0
  0
LINE
  5
1BA
330
1F
100
AcDbEntity
  8
0
  6
Continuous
 62
     7
100
AcDbLine
 10
48.32941038479198
 20
35.3600176451955
 30
0.0
 11
48.32941038479198
 21
35.49001764519549
 31
0.0
  0
LINE
  5
1BB
330
1F
100
AcDbEntity
  8
0
  6
Continuous
 62
     7
100
AcDbLine
 10
48.21566038479195
 20
35.3437676451955
 30
0.0
 11
48.29691038479196
 21
35.3600176451955
 31
0.0
  0
LINE
  5
1BC
330
1F
100
AcDbEntity
  8
0
  6
Continuous
 62
     7
100
AcDbLine
 10
48.29691038479196
 20
35.3600176451955
 30
0.0
 11
48.32941038479198
 21
35.3600176451955
 31
0.0
  0
LINE
  5
1BD
330
1F
100
AcDbEntity
  8
0
  6
Continuous
 62
     7
100
AcDbLine
 10
48.16691038479196
 20
35.3275176451955
 30
0.0
 11
48.21566038479195
 21
35.3437676451955
 31
0.0
  0
LINE
  5
1BE
330
1F
100
AcDbEntity
  8
0
  6
Continuous
 62
     7
100
AcDbLine
 10
49.29243893094106
 20
41.57229587613978
 30
0.0
 11
49.59243893094107
 21
41.57229587613978
 31
0.0
  0
LINE
  5
1BF
330
1F
100
AcDbEntity
  8
0
  6
Continuous
 62
     7
100
AcDbLine
 10
48.02066038479195
 20
35.49001764519549
 30
0.0
 11
48.02066038479195
 21
36.4325176451955
 31
0.0
  0
LINE
  5
1C0
330
1F
100
AcDbEntity
  8
0
  6
Continuous
 62
     7
100
AcDbLine
 10
48.32941038479198
 20
35.49001764519549
 30
0.0
 11
48.02066038479195
 21
35.49001764519549
 31
0.0
  0
LINE
  5
1C1
330
1F
100
AcDbEntity
  8
0
  6
Continuous
 62
     7
100
AcDbLine
 10
48.10191038479196
 20
35.2950176451955
 30
0.0
 11
48.16691038479196
 21
35.3275176451955
 31
0.0
  0
LINE
  5
1C2
330
1F
100
AcDbEntity
  8
0
  6
Continuous
 62
     7
100
AcDbLine
 10
48.05316038479198
 20
35.2462676451955
 30
0.0
 11
48.10191038479196
 21
35.2950176451955
 31
0.0
  0
LINE
  5
1C3
330
1F
100
AcDbEntity
  8
0
  6
Continuous
 62
     7
100
AcDbLine
 10
48.00441038479194
 20
35.1812676451955
 30
0.0
 11
48.05316038479198
 21
35.2462676451955
 31
0.0
  0
LINE
  5
1C4
330
1F
100
AcDbEntity
  8
0
  6
Continuous
 62
     7
100
AcDbLine
 10
47.98816038479198
 20
35.13251764519549
 30
0.0
 11
48.00441038479194
 21
35.1812676451955
 31
0.0
  0
LINE
  5
1C5
330
1F
100
AcDbEntity
  8
0
  6
Continuous
 62
     7
100
AcDbLine
 10
47.85816038479199
 20
35.13251764519549
 30
0.0
 11
47.98816038479198
 21
35.13251764519549
 31
0.0
  0
LINE
  5
1C6
330
1F
100
AcDbEntity
  8
0
  6
Continuous
 62
     7
100
AcDbLine
 10
47.85816038479193
 20
36.4325176451955
 30
0.0
 11
47.85816038479199
 21
35.13251764519549
 31
0.0
  0
LINE
  5
1C7
330
1F
100
AcDbEntity
  8
0
  6
Continuous
 62
     7
100
AcDbLine
 10
48.02066038479195
 20
36.4325176451955
 30
0.0
 11
47.85816038479193
 21
36.4325176451955
 31
0.0
  0
LINE
  5
1C8
330
1F
100
AcDbEntity
  8
0
  6
Continuous
 62
     7
100
AcDbLine
 10
50.79243893094106
 20
38.37229587613977
 30
0.0
 11
49.79243893094106
 21
38.37229587613977
 31
0.0
  0
LINE
  5
1C9
330
1F
100
AcDbEntity
  8
0
  6
Continuous
 62
     7
100
AcDbLine
 10
49.79243893094106
 20
38.37229587613977
 30
0.0
 11
49.59243893094107
 21
38.37229587613977
 31
0.0
  0
LINE
  5
1CA
330
1F
100
AcDbEntity
  8
0
  6
Continuous
 62
     7
100
AcDbLine
 10
49.79243893094106
 20
41.57229587613978
 30
0.0
 11
50.79243893094106
 21
41.57229587613979
 31
0.0
  0
LINE
  5
1CB
330
1F
100
AcDbEntity
  8
0
  6
Continuous
 62
     7
100
AcDbLine
 10
49.59243893094107
 20
41.57229587613978
 30
0.0
 11
49.79243893094106
 21
41.57229587613978
 31
0.0
  0
LINE
  5
1CC
330
1F
100
AcDbEntity
  8
0
  6
Continuous
 62
     7
100
AcDbLine
 10
50.79243893094106
 20
41.47229587613981
 30
0.0
 11
49.79243893094106
 21
41.4722958761398
 31
0.0
  0
LINE
  5
1CD
330
1F
100
AcDbEntity
  8
0
  6
Continuous
 62
     7
100
AcDbLine
 10
50.79243893094106
 20
41.47229587613981
 30
0.0
 11
50.79243893094106
 21
38.47229587613981
 31
0.0
  0
LINE
  5
1CE
330
1F
100
AcDbEntity
  8
0
  6
Continuous
 62
     7
100
AcDbLine
 10
50.79243893094106
 20
38.47229587613981
 30
0.0
 11
50.79243893094106
 21
38.37229587613977
 31
0.0
  0
LINE
  5
1CF
330
1F
100
AcDbEntity
  8
0
  6
Continuous
 62
     7
100
AcDbLine
 10
50.79243893094106
 20
41.57229587613979
 30
0.0
 11
50.79243893094106
 21
41.47229587613981
 31
0.0
  0
LINE
  5
1D0
330
1F
100
AcDbEntity
  8
0
  6
Continuous
 62
     7
100
AcDbLine
 10
49.79243893094106
 20
38.4722958761398
 30
0.0
 11
49.59243893094107
 21
38.4722958761398
 31
0.0
  0
LINE
  5
1D1
330
1F
100
AcDbEntity
  8
0
  6
Continuous
 62
     7
100
AcDbLine
 10
49.79243893094106
 20
41.4722958761398
 30
0.0
 11
49.59243893094107
 21
41.4722958761398
 31
0.0
  0
LINE
  5
1D2
330
1F
100
AcDbEntity
  8
0
  6
Continuous
 62
     7
100
AcDbLine
 10
50.79243893094106
 20
38.47229587613981
 30
0.0
 11
49.79243893094106
 21
38.4722958761398
 31
0.0
  0
LINE
  5
1D3
330
1F
100
AcDbEntity
  8
0
  6
Continuous
 62
     7
100
AcDbLine
 10
41.45916511989891
 20
27.57612628280689
 30
0.0
 11
41.45916511989891
 21
27.32800470613466
 31
0.0
  0
LINE
  5
1D4
330
1F
100
AcDbEntity
  8
0
  6
Continuous
 62
     7
100
AcDbLine
 10
41.09657393094115
 20
27.23007396370464
 30
0.0
 11
41.09657393094115
 21
27.40203265268291
 31
0.0
  0
LINE
  5
1D5
330
1F
100
AcDbEntity
  8
1
  6
DOT_CENTER
 62
     7
100
AcDbLine
 10
40.29243893094117
 20
135.7222966449699
 30
0.0
 11
40.29243893094117
 21
135.6722966449698
 31
0.0
  0
LINE
  5
1D6
330
1F
100
AcDbEntity
  8
1
  6
DOT_CENTER
 62
     7
100
AcDbLine
 10
40.29243893094089
 20
127.8528241418448
 30
0.0
 11
40.29243893094089
 21
125.6548088347413
 31
0.0
  0
LINE
  5
1D7
330
1F
100
AcDbEntity
  8
1
  6
DOT_CENTER
 62
     7
100
AcDbLine
 10
41.39144658449273
 20
126.753816488293
 30
0.0
 11
39.19343127738911
 21
126.753816488293
 31
0.0
  0
LINE
  5
1D8
330
1F
100
AcDbEntity
  8
1
  6
DOT_CENTER
 62
     7
100
AcDbLine
 10
35.29243893094106
 20
121.4522966449699
 30
0.0
 11
35.29243893094106
 21
119.6922966449699
 31
0.0
  0
LINE
  5
1D9
330
1F
100
AcDbEntity
  8
1
  6
DOT_CENTER
 62
     7
100
AcDbLine
 10
36.17243893094106
 20
120.5722966449699
 30
0.0
 11
34.41243893094107
 21
120.5722966449699
 31
0.0
  0
LINE
  5
1DA
330
1F
100
AcDbEntity
  8
1
  6
DOT_CENTER
 62
     7
100
AcDbLine
 10
45.29243893094106
 20
121.4522966449698
 30
0.0
 11
45.29243893094106
 21
119.6922966449698
 31
0.0
  0
LINE
  5
1DB
330
1F
100
AcDbEntity
  8
1
  6
DOT_CENTER
 62
     7
100
AcDbLine
 10
46.17243893094106
 20
120.5722966449698
 30
0.0
 11
44.41243893094107
 21
120.5722966449698
 31
0.0
  0
LINE
  5
1DC
330
1F
100
AcDbEntity
  8
1
  6
DOT_CENTER
 62
     7
100
AcDbLine
 10
35.29243893094106
 20
127.6522966449699
 30
0.0
 11
35.29243893094106
 21
125.8922966449699
 31
0.0
  0
LINE
  5
1DD
330
1F
100
AcDbEntity
  8
1
  6
DOT_CENTER
 62
     7
100
AcDbLine
 10
36.17243893094106
 20
126.7722966449699
 30
0.0
 11
34.41243893094107
 21
126.7722966449699
 31
0.0
  0
LINE
  5
1DE
330
1F
100
AcDbEntity
  8
1
  6
DOT_CENTER
 62
     7
100
AcDbLine
 10
45.29243893094106
 20
127.6522966449698
 30
0.0
 11
45.29243893094106
 21
125.8922966449698
 31
0.0
  0
LINE
  5
1DF
330
1F
100
AcDbEntity
  8
1
  6
DOT_CENTER
 62
     7
100
AcDbLine
 10
46.17243893094111
 20
126.7722966449698
 30
0.0
 11
44.41243893094107
 21
126.7722966449698
 31
0.0
  0
LINE
  5
1E0
330
1F
100
AcDbEntity
  8
1
  6
DOT_CENTER
 62
     7
100
AcDbLine
 10
40.29243893094117
 20
130.1022966449699
 30
0.0
 11
40.29243893094117
 21
128.3422966449699
 31
0.0
  0
LINE
  5
1E1
330
1F
100
AcDbEntity
  8
1
  6
DOT_CENTER
 62
     7
100
AcDbLine
 10
41.17243893094117
 20
129.2222966449699
 30
0.0
 11
39.41243893094118
 21
129.2222966449699
 31
0.0
  0
LINE
  5
1E2
330
1F
100
AcDbEntity
  8
0
  6
Continuous
 62
     7
100
AcDbLine
 10
48.79243893094106
 20
116.6722966449697
 30
0.0
 11
48.79243893094106
 21
122.6722966449698
 31
0.0
  0
LINE
  5
1E3
330
1F
100
AcDbEntity
  8
0
  6
Continuous
 62
     7
100
AcDbLine
 10
49.79243893094106
 20
122.1722966449698
 30
0.0
 11
49.79243893094106
 21
125.1722966449698
 31
0.0
  0
LINE
  5
1E4
330
1F
100
AcDbEntity
  8
0
  6
Continuous
 62
     7
100
AcDbLine
 10
48.12306393094106
 20
119.9222966449698
 30
0.0
 11
48.12306393094106
 21
120.0847966449698
 31
0.0
  0
LINE
  5
1E5
330
1F
100
AcDbEntity
  8
0
  6
Continuous
 62
     7
100
AcDbLine
 10
47.99306393094106
 20
120.6697966449698
 30
0.0
 11
48.05806393094106
 21
120.7672966449698
 31
0.0
  0
LINE
  5
1E6
330
1F
100
AcDbEntity
  8
0
  6
Continuous
 62
     7
100
AcDbLine
 10
48.05806393094106
 20
120.7672966449698
 30
0.0
 11
48.07431393094107
 21
120.8485466449698
 31
0.0
  0
LINE
  5
1E7
330
1F
100
AcDbEntity
  8
0
  6
Continuous
 62
     7
100
AcDbLine
 10
48.07431393094107
 20
120.8485466449698
 30
0.0
 11
48.07431393094107
 21
120.9135466449698
 31
0.0
  0
LINE
  5
1E8
330
1F
100
AcDbEntity
  8
0
  6
Continuous
 62
     7
100
AcDbLine
 10
48.07431393094107
 20
120.9135466449698
 30
0.0
 11
48.05806393094106
 21
120.9947966449698
 31
0.0
  0
LINE
  5
1E9
330
1F
100
AcDbEntity
  8
0
  6
Continuous
 62
     7
100
AcDbLine
 10
48.05806393094106
 20
120.9947966449698
 30
0.0
 11
47.99306393094112
 21
121.0922966449697
 31
0.0
  0
LINE
  5
1EA
330
1F
100
AcDbEntity
  8
0
  6
Continuous
 62
     7
100
AcDbLine
 10
47.99306393094112
 20
121.0922966449697
 30
0.0
 11
47.92806393094107
 21
121.1572966449698
 31
0.0
  0
LINE
  5
1EB
330
1F
100
AcDbEntity
  8
0
  6
Continuous
 62
     7
100
AcDbLine
 10
47.92806393094107
 20
121.1572966449698
 30
0.0
 11
47.8305639309411
 21
121.2060466449698
 31
0.0
  0
LINE
  5
1EC
330
1F
100
AcDbEntity
  8
0
  6
Continuous
 62
     7
100
AcDbLine
 10
47.92806393094112
 20
126.1222966449699
 30
0.0
 11
47.92806393094112
 21
127.4222966449699
 31
0.0
  0
LINE
  5
1ED
330
1F
100
AcDbEntity
  8
0
  6
Continuous
 62
     7
100
AcDbLine
 10
50.79243893094106
 20
119.1722966449697
 30
0.0
 11
50.79243893094106
 21
122.1722966449697
 31
0.0
  0
LINE
  5
1EE
330
1F
100
AcDbEntity
  8
0
  6
Continuous
 62
     7
100
AcDbLine
 10
49.59243893094107
 20
122.1722966449697
 30
0.0
 11
49.59243893094113
 21
125.1722966449697
 31
0.0
  0
LINE
  5
1EF
330
1F
100
AcDbEntity
  8
0
  6
Continuous
 62
     7
100
AcDbLine
 10
50.04243893094112
 20
125.1722966449697
 30
0.0
 11
50.04243893094112
 21
122.1722966449697
 31
0.0
  0
LINE
  5
1F0
330
1F
100
AcDbEntity
  8
0
  6
Continuous
 62
     7
100
AcDbLine
 10
50.04243893094106
 20
116.1722966449697
 30
0.0
 11
50.04243893094106
 21
119.1722966449698
 31
0.0
  0
LINE
  5
1F1
330
1F
100
AcDbEntity
  8
0
  6
Continuous
 62
     7
100
AcDbLine
 10
43.29243893094106
 20
116.5722966449698
 30
0.0
 11
43.29243893094106
 21
115.1722966449698
 31
0.0
  0
LINE
  5
1F2
330
1F
100
AcDbEntity
  8
0
  6
Continuous
 62
     7
100
AcDbLine
 10
47.29243893094106
 20
115.1722966449698
 30
0.0
 11
43.29243893094106
 21
115.1722966449698
 31
0.0
  0
LINE
  5
1F3
330
1F
100
AcDbEntity
  8
0
  6
Continuous
 62
     7
100
AcDbLine
 10
28.29243893094106
 20
131.6722966449699
 30
0.0
 11
28.29243893094106
 21
115.6722966449699
 31
0.0
  0
LINE
  5
1F4
330
1F
100
AcDbEntity
  8
0
  6
Continuous
 62
     7
100
AcDbLine
 10
31.79243893094112
 20
130.6722966449699
 30
0.0
 11
31.79243893094106
 21
124.6722966449699
 31
0.0
  0
LINE
  5
1F5
330
1F
100
AcDbEntity
  8
0
  6
Continuous
 62
     7
100
AcDbLine
 10
32.6243139309412
 20
126.5772966449699
 30
0.0
 11
32.99806393094123
 21
127.1297966449699
 31
0.0
  0
LINE
  5
1F6
330
1F
100
AcDbEntity
  8
0
  6
Continuous
 62
     7
100
AcDbLine
 10
36.84243893094113
 20
127.5906370214686
 30
0.0
 11
36.84243893094113
 21
125.1722966449699
 31
0.0
  0
LINE
  5
1F7
330
1F
100
AcDbEntity
  8
0
  6
Continuous
 62
     7
100
AcDbLine
 10
36.34243893094113
 20
124.6722966449699
 30
0.0
 11
31.79243893094106
 21
124.6722966449699
 31
0.0
  0
LINE
  5
1F8
330
1F
100
AcDbEntity
  8
0
  6
Continuous
 62
     7
100
AcDbLine
 10
32.99806393094123
 20
127.4222966449699
 30
0.0
 11
32.44556393094122
 21
126.5935466449699
 31
0.0
  0
LINE
  5
1F9
330
1F
100
AcDbEntity
  8
0
  6
Continuous
 62
     7
100
AcDbLine
 10
32.99806393094123
 20
126.5772966449699
 30
0.0
 11
32.6243139309412
 21
126.5772966449699
 31
0.0
  0
LINE
  5
1FA
330
1F
100
AcDbEntity
  8
0
  6
Continuous
 62
     7
100
AcDbLine
 10
32.44556393094122
 20
126.41479664497
 30
0.0
 11
32.99806393094123
 21
126.41479664497
 31
0.0
  0
LINE
  5
1FB
330
1F
100
AcDbEntity
  8
0
  6
Continuous
 62
     7
100
AcDbLine
 10
32.99806393094123
 20
126.41479664497
 30
0.0
 11
32.99806393094123
 21
126.1222966449699
 31
0.0
  0
LINE
  5
1FC
330
1F
100
AcDbEntity
  8
0
  6
Continuous
 62
     7
100
AcDbLine
 10
32.99806393094123
 20
126.1222966449699
 30
0.0
 11
33.17681393094121
 21
126.1222966449699
 31
0.0
  0
LINE
  5
1FD
330
1F
100
AcDbEntity
  8
0
  6
Continuous
 62
     7
100
AcDbLine
 10
32.44556393094122
 20
126.5935466449699
 30
0.0
 11
32.44556393094122
 21
126.41479664497
 31
0.0
  0
LINE
  5
1FE
330
1F
100
AcDbEntity
  8
0
  6
Continuous
 62
     7
100
AcDbLine
 10
33.17681393094121
 20
127.4222966449699
 30
0.0
 11
32.99806393094123
 21
127.4222966449699
 31
0.0
  0
LINE
  5
1FF
330
1F
100
AcDbEntity
  8
0
  6
Continuous
 62
     7
100
AcDbLine
 10
33.17681393094121
 20
126.5772966449699
 30
0.0
 11
33.17681393094121
 21
127.4222966449699
 31
0.0
  0
LINE
  5
200
330
1F
100
AcDbEntity
  8
0
  6
Continuous
 62
     7
100
AcDbLine
 10
32.99806393094123
 20
127.1297966449699
 30
0.0
 11
32.99806393094123
 21
126.5772966449699
 31
0.0
  0
LINE
  5
201
330
1F
100
AcDbEntity
  8
0
  6
Continuous
 62
     7
100
AcDbLine
 10
33.16868893094114
 20
120.0035466449698
 30
0.0
 11
33.24993893094116
 21
120.0847966449698
 31
0.0
  0
LINE
  5
202
330
1F
100
AcDbEntity
  8
0
  6
Continuous
 62
     7
100
AcDbLine
 10
33.24993893094116
 20
120.9947966449699
 30
0.0
 11
33.18493893094116
 21
121.0922966449698
 31
0.0
  0
LINE
  5
203
330
1F
100
AcDbEntity
  8
0
  6
Continuous
 62
     7
100
AcDbLine
 10
32.74618893094119
 20
121.0110466449699
 30
0.0
 11
32.79493893094117
 21
121.0435466449699
 31
0.0
  0
LINE
  5
204
330
1F
100
AcDbEntity
  8
0
  6
Continuous
 62
     7
100
AcDbLine
 10
32.98993893094117
 20
121.0435466449699
 30
0.0
 11
33.03868893094121
 21
121.0110466449699
 31
0.0
  0
LINE
  5
205
330
1F
100
AcDbEntity
  8
0
  6
Continuous
 62
     7
100
AcDbLine
 10
32.92493893094117
 20
121.0597966449699
 30
0.0
 11
32.98993893094117
 21
121.0435466449699
 31
0.0
  0
LINE
  5
206
330
1F
100
AcDbEntity
  8
0
  6
Continuous
 62
     7
100
AcDbLine
 10
32.85993893094117
 20
120.1010466449698
 30
0.0
 11
32.77868893094116
 21
120.1172966449698
 31
0.0
  0
LINE
  5
207
330
1F
100
AcDbEntity
  8
0
  6
Continuous
 62
     7
100
AcDbLine
 10
32.92493893094117
 20
120.5560466449699
 30
0.0
 11
33.00618893094118
 21
120.5397966449699
 31
0.0
  0
LINE
  5
208
330
1F
100
AcDbEntity
  8
0
  6
Continuous
 62
     7
100
AcDbLine
 10
33.00618893094118
 20
120.5397966449699
 30
0.0
 11
33.07118893094118
 21
120.4910466449699
 31
0.0
  0
LINE
  5
209
330
1F
100
AcDbEntity
  8
0
  6
Continuous
 62
     7
100
AcDbLine
 10
33.07118893094118
 20
120.4910466449699
 30
0.0
 11
33.11993893094116
 21
120.4260466449698
 31
0.0
  0
LINE
  5
20A
330
1F
100
AcDbEntity
  8
0
  6
Continuous
 62
     7
100
AcDbLine
 10
32.85993893094117
 20
120.7022966449698
 30
0.0
 11
32.85993893094117
 21
120.5560466449699
 31
0.0
  0
LINE
  5
20B
330
1F
100
AcDbEntity
  8
0
  6
Continuous
 62
     7
100
AcDbLine
 10
32.85993893094117
 20
120.5560466449699
 30
0.0
 11
32.92493893094117
 21
120.5560466449699
 31
0.0
  0
LINE
  5
20C
330
1F
100
AcDbEntity
  8
0
  6
Continuous
 62
     7
100
AcDbLine
 10
32.92493893094117
 20
120.1010466449698
 30
0.0
 11
32.85993893094117
 21
120.1010466449698
 31
0.0
  0
LINE
  5
20D
330
1F
100
AcDbEntity
  8
0
  6
Continuous
 62
     7
100
AcDbLine
 10
32.92493893094117
 20
120.7022966449698
 30
0.0
 11
32.85993893094117
 21
120.7022966449698
 31
0.0
  0
LINE
  5
20E
330
1F
100
AcDbEntity
  8
0
  6
Continuous
 62
     7
100
AcDbLine
 10
32.98993893094117
 20
120.7185466449698
 30
0.0
 11
32.92493893094117
 21
120.7022966449698
 31
0.0
  0
LINE
  5
20F
330
1F
100
AcDbEntity
  8
0
  6
Continuous
 62
     7
100
AcDbLine
 10
33.00618893094118
 20
120.1172966449698
 30
0.0
 11
32.92493893094117
 21
120.1010466449698
 31
0.0
  0
LINE
  5
210
330
1F
100
AcDbEntity
  8
0
  6
Continuous
 62
     7
100
AcDbLine
 10
33.07118893094118
 20
120.9622966449699
 30
0.0
 11
33.08743893094119
 21
120.9135466449698
 31
0.0
  0
LINE
  5
211
330
1F
100
AcDbEntity
  8
0
  6
Continuous
 62
     7
100
AcDbLine
 10
33.08743893094119
 20
120.8485466449698
 30
0.0
 11
33.07118893094118
 21
120.7997966449698
 31
0.0
  0
LINE
  5
212
330
1F
100
AcDbEntity
  8
0
  6
Continuous
 62
     7
100
AcDbLine
 10
33.11993893094116
 20
120.2310466449699
 30
0.0
 11
33.07118893094118
 21
120.1660466449699
 31
0.0
  0
LINE
  5
213
330
1F
100
AcDbEntity
  8
0
  6
Continuous
 62
     7
100
AcDbLine
 10
33.13618893094117
 20
120.2960466449698
 30
0.0
 11
33.11993893094116
 21
120.2310466449699
 31
0.0
  0
LINE
  5
214
330
1F
100
AcDbEntity
  8
0
  6
Continuous
 62
     7
100
AcDbLine
 10
33.08743893094119
 20
120.9135466449698
 30
0.0
 11
33.08743893094119
 21
120.8485466449698
 31
0.0
  0
LINE
  5
215
330
1F
100
AcDbEntity
  8
0
  6
Continuous
 62
     7
100
AcDbLine
 10
33.13618893094117
 20
120.3610466449698
 30
0.0
 11
33.13618893094117
 21
120.2960466449698
 31
0.0
  0
LINE
  5
216
330
1F
100
AcDbEntity
  8
0
  6
Continuous
 62
     7
100
AcDbLine
 10
33.03868893094121
 20
120.7510466449698
 30
0.0
 11
32.98993893094117
 21
120.7185466449698
 31
0.0
  0
LINE
  5
217
330
1F
100
AcDbEntity
  8
0
  6
Continuous
 62
     7
100
AcDbLine
 10
33.07118893094118
 20
120.1660466449699
 30
0.0
 11
33.00618893094118
 21
120.1172966449698
 31
0.0
  0
LINE
  5
218
330
1F
100
AcDbEntity
  8
0
  6
Continuous
 62
     7
100
AcDbLine
 10
33.03868893094121
 20
121.0110466449699
 30
0.0
 11
33.07118893094118
 21
120.9622966449699
 31
0.0
  0
LINE
  5
219
330
1F
100
AcDbEntity
  8
0
  6
Continuous
 62
     7
100
AcDbLine
 10
33.07118893094118
 20
120.7997966449698
 30
0.0
 11
33.03868893094121
 21
120.7510466449698
 31
0.0
  0
LINE
  5
21A
330
1F
100
AcDbEntity
  8
0
  6
Continuous
 62
     7
100
AcDbLine
 10
33.11993893094116
 20
120.4260466449698
 30
0.0
 11
33.13618893094117
 21
120.3610466449698
 31
0.0
  0
LINE
  5
21B
330
1F
100
AcDbEntity
  8
0
  6
Continuous
 62
     7
100
AcDbLine
 10
33.07118893094118
 20
119.9547966449698
 30
0.0
 11
33.16868893094114
 21
120.0035466449698
 31
0.0
  0
LINE
  5
21C
330
1F
100
AcDbEntity
  8
0
  6
Continuous
 62
     7
100
AcDbLine
 10
32.84368893094116
 20
121.2222966449698
 30
0.0
 11
32.76243893094114
 21
121.2060466449698
 31
0.0
  0
LINE
  5
21D
330
1F
100
AcDbEntity
  8
0
  6
Continuous
 62
     7
100
AcDbLine
 10
32.79493893094117
 20
121.0435466449699
 30
0.0
 11
32.85993893094117
 21
121.0597966449699
 31
0.0
  0
LINE
  5
21E
330
1F
100
AcDbEntity
  8
0
  6
Continuous
 62
     7
100
AcDbLine
 10
33.33118893094117
 20
120.2797966449698
 30
0.0
 11
33.33118893094117
 21
120.3610466449698
 31
0.0
  0
LINE
  5
21F
330
1F
100
AcDbEntity
  8
0
  6
Continuous
 62
     7
100
AcDbLine
 10
33.26618893094117
 20
120.9135466449698
 30
0.0
 11
33.24993893094116
 21
120.9947966449699
 31
0.0
  0
LINE
  5
220
330
1F
100
AcDbEntity
  8
0
  6
Continuous
 62
     7
100
AcDbLine
 10
32.6974389309412
 20
120.8485466449698
 30
0.0
 11
32.6974389309412
 21
120.9135466449698
 31
0.0
  0
LINE
  5
221
330
1F
100
AcDbEntity
  8
0
  6
Continuous
 62
     7
100
AcDbLine
 10
33.26618893094117
 20
120.8485466449698
 30
0.0
 11
33.26618893094117
 21
120.9135466449698
 31
0.0
  0
LINE
  5
222
330
1F
100
AcDbEntity
  8
0
  6
Continuous
 62
     7
100
AcDbLine
 10
32.71368893094116
 20
119.9547966449698
 30
0.0
 11
32.84368893094116
 21
119.9222966449698
 31
0.0
  0
LINE
  5
223
330
1F
100
AcDbEntity
  8
0
  6
Continuous
 62
     7
100
AcDbLine
 10
32.76243893094114
 20
121.2060466449698
 30
0.0
 11
32.66493893094118
 21
121.1572966449698
 31
0.0
  0
LINE
  5
224
330
1F
100
AcDbEntity
  8
0
  6
Continuous
 62
     7
100
AcDbLine
 10
32.71368893094116
 20
120.9622966449699
 30
0.0
 11
32.74618893094119
 21
121.0110466449699
 31
0.0
  0
LINE
  5
225
330
1F
100
AcDbEntity
  8
0
  6
Continuous
 62
     7
100
AcDbLine
 10
32.84368893094116
 20
119.9222966449698
 30
0.0
 11
32.94118893094118
 21
119.9222966449698
 31
0.0
  0
LINE
  5
226
330
1F
100
AcDbEntity
  8
0
  6
Continuous
 62
     7
100
AcDbLine
 10
32.94118893094118
 20
119.9222966449698
 30
0.0
 11
33.07118893094118
 21
119.9547966449698
 31
0.0
  0
LINE
  5
227
330
1F
100
AcDbEntity
  8
0
  6
Continuous
 62
     7
100
AcDbLine
 10
32.71368893094116
 20
120.1660466449699
 30
0.0
 11
32.66493893094118
 21
120.2310466449699
 31
0.0
  0
LINE
  5
228
330
1F
100
AcDbEntity
  8
0
  6
Continuous
 62
     7
100
AcDbLine
 10
32.77868893094116
 20
120.1172966449698
 30
0.0
 11
32.71368893094116
 21
120.1660466449699
 31
0.0
  0
LINE
  5
229
330
1F
100
AcDbEntity
  8
0
  6
Continuous
 62
     7
100
AcDbLine
 10
32.61618893094114
 20
120.0035466449699
 30
0.0
 11
32.71368893094116
 21
119.9547966449698
 31
0.0
  0
LINE
  5
22A
330
1F
100
AcDbEntity
  8
0
  6
Continuous
 62
     7
100
AcDbLine
 10
32.66493893094118
 20
121.1572966449698
 30
0.0
 11
32.59993893094118
 21
121.0922966449698
 31
0.0
  0
LINE
  5
22B
330
1F
100
AcDbEntity
  8
0
  6
Continuous
 62
     7
100
AcDbLine
 10
32.6974389309412
 20
120.9135466449698
 30
0.0
 11
32.71368893094116
 21
120.9622966449699
 31
0.0
  0
LINE
  5
22C
330
1F
100
AcDbEntity
  8
0
  6
Continuous
 62
     7
100
AcDbLine
 10
32.64868893094116
 20
120.2960466449698
 30
0.0
 11
32.64868893094116
 21
120.3610466449698
 31
0.0
  0
LINE
  5
22D
330
1F
100
AcDbEntity
  8
0
  6
Continuous
 62
     7
100
AcDbLine
 10
32.66493893094118
 20
120.2310466449699
 30
0.0
 11
32.64868893094116
 21
120.2960466449698
 31
0.0
  0
LINE
  5
22E
330
1F
100
AcDbEntity
  8
0
  6
Continuous
 62
     7
100
AcDbLine
 10
33.24993893094116
 20
120.0847966449698
 30
0.0
 11
33.2986889309412
 21
120.1660466449699
 31
0.0
  0
LINE
  5
22F
330
1F
100
AcDbEntity
  8
0
  6
Continuous
 62
     7
100
AcDbLine
 10
33.2986889309412
 20
120.1660466449699
 30
0.0
 11
33.33118893094117
 21
120.2797966449698
 31
0.0
  0
LINE
  5
230
330
1F
100
AcDbEntity
  8
0
  6
Continuous
 62
     7
100
AcDbLine
 10
33.18493893094116
 20
121.0922966449698
 30
0.0
 11
33.11993893094116
 21
121.1572966449698
 31
0.0
  0
LINE
  5
231
330
1F
100
AcDbEntity
  8
0
  6
Continuous
 62
     7
100
AcDbLine
 10
33.11993893094116
 20
121.1572966449698
 30
0.0
 11
33.02243893094119
 21
121.2060466449698
 31
0.0
  0
LINE
  5
232
330
1F
100
AcDbEntity
  8
0
  6
Continuous
 62
     7
100
AcDbLine
 10
33.02243893094119
 20
121.2060466449698
 30
0.0
 11
32.94118893094118
 21
121.2222966449698
 31
0.0
  0
LINE
  5
233
330
1F
100
AcDbEntity
  8
0
  6
Continuous
 62
     7
100
AcDbLine
 10
32.94118893094118
 20
121.2222966449698
 30
0.0
 11
32.84368893094116
 21
121.2222966449698
 31
0.0
  0
LINE
  5
234
330
1F
100
AcDbEntity
  8
0
  6
Continuous
 62
     7
100
AcDbLine
 10
32.85993893094117
 20
121.0597966449699
 30
0.0
 11
32.92493893094117
 21
121.0597966449699
 31
0.0
  0
LINE
  5
235
330
1F
100
AcDbEntity
  8
0
  6
Continuous
 62
     7
100
AcDbLine
 10
33.33118893094117
 20
120.3610466449698
 30
0.0
 11
33.2986889309412
 21
120.4747966449698
 31
0.0
  0
LINE
  5
236
330
1F
100
AcDbEntity
  8
0
  6
Continuous
 62
     7
100
AcDbLine
 10
33.2986889309412
 20
120.4747966449698
 30
0.0
 11
33.2336889309412
 21
120.5722966449699
 31
0.0
  0
LINE
  5
237
330
1F
100
AcDbEntity
  8
0
  6
Continuous
 62
     7
100
AcDbLine
 10
33.2336889309412
 20
120.5722966449699
 30
0.0
 11
33.15243893094119
 21
120.6372966449699
 31
0.0
  0
LINE
  5
238
330
1F
100
AcDbEntity
  8
0
  6
Continuous
 62
     7
100
AcDbLine
 10
33.15243893094119
 20
120.6372966449699
 30
0.0
 11
33.18493893094116
 21
120.6697966449698
 31
0.0
  0
LINE
  5
239
330
1F
100
AcDbEntity
  8
0
  6
Continuous
 62
     7
100
AcDbLine
 10
33.18493893094116
 20
120.6697966449698
 30
0.0
 11
33.24993893094116
 21
120.7672966449698
 31
0.0
  0
LINE
  5
23A
330
1F
100
AcDbEntity
  8
0
  6
Continuous
 62
     7
100
AcDbLine
 10
33.24993893094116
 20
120.7672966449698
 30
0.0
 11
33.26618893094117
 21
120.8485466449698
 31
0.0
  0
LINE
  5
23B
330
1F
100
AcDbEntity
  8
0
  6
Continuous
 62
     7
100
AcDbLine
 10
32.51868893094117
 20
120.8485466449698
 30
0.0
 11
32.6974389309412
 21
120.8485466449698
 31
0.0
  0
LINE
  5
23C
330
1F
100
AcDbEntity
  8
0
  6
Continuous
 62
     7
100
AcDbLine
 10
31.79243893094106
 20
124.6722966449699
 30
0.0
 11
31.79243893094106
 21
122.6722966449699
 31
0.0
  0
LINE
  5
23D
330
1F
100
AcDbEntity
  8
0
  6
Continuous
 62
     7
100
AcDbLine
 10
32.64868893094116
 20
120.3610466449698
 30
0.0
 11
32.45368893094117
 21
120.3610466449698
 31
0.0
  0
LINE
  5
23E
330
1F
100
AcDbEntity
  8
0
  6
Continuous
 62
     7
100
AcDbLine
 10
32.45368893094117
 20
120.2797966449698
 30
0.0
 11
32.4861889309412
 21
120.1660466449699
 31
0.0
  0
LINE
  5
23F
330
1F
100
AcDbEntity
  8
0
  6
Continuous
 62
     7
100
AcDbLine
 10
32.4861889309412
 20
120.1660466449699
 30
0.0
 11
32.53493893094118
 21
120.0847966449699
 31
0.0
  0
LINE
  5
240
330
1F
100
AcDbEntity
  8
0
  6
Continuous
 62
     7
100
AcDbLine
 10
32.53493893094118
 20
120.0847966449699
 30
0.0
 11
32.61618893094114
 21
120.0035466449699
 31
0.0
  0
LINE
  5
241
330
1F
100
AcDbEntity
  8
0
  6
Continuous
 62
     7
100
AcDbLine
 10
32.59993893094118
 20
121.0922966449698
 30
0.0
 11
32.53493893094118
 21
120.9947966449699
 31
0.0
  0
LINE
  5
242
330
1F
100
AcDbEntity
  8
0
  6
Continuous
 62
     7
100
AcDbLine
 10
32.53493893094118
 20
120.9947966449699
 30
0.0
 11
32.51868893094117
 21
120.9135466449698
 31
0.0
  0
LINE
  5
243
330
1F
100
AcDbEntity
  8
0
  6
Continuous
 62
     7
100
AcDbLine
 10
32.51868893094117
 20
120.9135466449698
 30
0.0
 11
32.51868893094117
 21
120.8485466449698
 31
0.0
  0
LINE
  5
244
330
1F
100
AcDbEntity
  8
0
  6
Continuous
 62
     7
100
AcDbLine
 10
32.45368893094117
 20
120.3610466449698
 30
0.0
 11
32.45368893094117
 21
120.2797966449698
 31
0.0
  0
LINE
  5
245
330
1F
100
AcDbEntity
  8
0
  6
Continuous
 62
     7
100
AcDbLine
 10
38.04243893094112
 20
122.6722966449698
 30
0.0
 11
31.79243893094106
 21
122.6722966449699
 31
0.0
  0
LINE
  5
246
330
1F
100
AcDbEntity
  8
0
  6
Continuous
 62
     7
100
AcDbLine
 10
37.29243893094106
 20
115.1722966449698
 30
0.0
 11
37.29243893094106
 21
116.5722966449698
 31
0.0
  0
LINE
  5
247
330
1F
100
AcDbEntity
  8
0
  6
Continuous
 62
     7
100
AcDbLine
 10
37.29243893094106
 20
115.1722966449698
 30
0.0
 11
33.292438930941
 21
115.1722966449699
 31
0.0
  0
LINE
  5
248
330
1F
100
AcDbEntity
  8
0
  6
Continuous
 62
     7
100
AcDbLine
 10
31.79243893094106
 20
122.6722966449699
 30
0.0
 11
31.79243893094106
 21
116.6722966449699
 31
0.0
  0
LINE
  5
249
330
1F
100
AcDbEntity
  8
0
  6
Continuous
 62
     7
100
AcDbLine
 10
29.79243893094106
 20
119.1722966449699
 30
0.0
 11
30.54243893094106
 21
119.1722966449699
 31
0.0
  0
LINE
  5
24A
330
1F
100
AcDbEntity
  8
0
  6
Continuous
 62
     7
100
AcDbLine
 10
29.79243893094106
 20
122.1722966449699
 30
0.0
 11
30.54243893094112
 21
122.1722966449698
 31
0.0
  0
LINE
  5
24B
330
1F
100
AcDbEntity
  8
0
  6
Continuous
 62
     7
100
AcDbLine
 10
30.54243893094112
 20
122.1722966449698
 30
0.0
 11
30.99243893094105
 21
122.1722966449698
 31
0.0
  0
LINE
  5
24C
330
1F
100
AcDbEntity
  8
0
  6
Continuous
 62
     7
100
AcDbLine
 10
30.54243893094112
 20
125.1722966449698
 30
0.0
 11
29.79243893094112
 21
125.1722966449699
 31
0.0
  0
LINE
  5
24D
330
1F
100
AcDbEntity
  8
0
  6
Continuous
 62
     7
100
AcDbLine
 10
30.99243893094111
 20
125.1722966449699
 30
0.0
 11
30.54243893094112
 21
125.1722966449698
 31
0.0
  0
LINE
  5
24E
330
1F
100
AcDbEntity
  8
0
  6
Continuous
 62
     7
100
AcDbLine
 10
29.79243893094106
 20
119.1722966449699
 30
0.0
 11
29.79243893094106
 21
122.1722966449699
 31
0.0
  0
LINE
  5
24F
330
1F
100
AcDbEntity
  8
0
  6
Continuous
 62
     7
100
AcDbLine
 10
30.54243893094112
 20
125.1722966449698
 30
0.0
 11
30.54243893094112
 21
122.1722966449698
 31
0.0
  0
LINE
  5
250
330
1F
100
AcDbEntity
  8
0
  6
Continuous
 62
     7
100
AcDbLine
 10
30.54243893094106
 20
116.1722966449699
 30
0.0
 11
30.54243893094106
 21
119.1722966449699
 31
0.0
  0
LINE
  5
251
330
1F
100
AcDbEntity
  8
0
  6
Continuous
 62
     7
100
AcDbLine
 10
35.17485120444742
 20
132.1722966449699
 30
0.0
 11
36.84243893094113
 21
127.5906370214686
 31
0.0
  0
LINE
  5
252
330
1F
100
AcDbEntity
  8
0
  6
Continuous
 62
     7
100
AcDbLine
 10
36.98395341765645
 20
132.1722966449699
 30
0.0
 11
38.54243893094112
 21
127.890392888673
 31
0.0
  0
LINE
  5
253
330
1F
100
AcDbEntity
  8
0
  6
Continuous
 62
     7
100
AcDbLine
 10
42.04243893094112
 20
127.8903928886729
 30
0.0
 11
43.6009244442259
 21
132.1722966449698
 31
0.0
  0
LINE
  5
254
330
1F
100
AcDbEntity
  8
0
  6
Continuous
 62
     7
100
AcDbLine
 10
45.41002665743493
 20
132.1722966449698
 30
0.0
 11
43.74243893094116
 21
127.5906370214685
 31
0.0
  0
LINE
  5
255
330
1F
100
AcDbEntity
  8
0
  6
Continuous
 62
     7
100
AcDbLine
 10
47.57056393094111
 20
127.2110466449699
 30
0.0
 11
47.48931393094109
 21
127.1947966449699
 31
0.0
  0
LINE
  5
256
330
1F
100
AcDbEntity
  8
0
  6
Continuous
 62
     7
100
AcDbLine
 10
47.48931393094109
 20
127.1947966449699
 30
0.0
 11
47.45681393094112
 21
127.1947966449699
 31
0.0
  0
LINE
  5
257
330
1F
100
AcDbEntity
  8
0
  6
Continuous
 62
     7
100
AcDbLine
 10
43.6009244442259
 20
132.1722966449698
 30
0.0
 11
36.98395341765645
 21
132.1722966449699
 31
0.0
  0
LINE
  5
258
330
1F
100
AcDbEntity
  8
0
  6
Continuous
 62
     7
100
AcDbLine
 10
35.17485120444742
 20
132.1722966449699
 30
0.0
 11
33.29243893094112
 21
132.1722966449699
 31
0.0
  0
LINE
  5
259
330
1F
100
AcDbEntity
  8
0
  6
Continuous
 62
     7
100
AcDbLine
 10
36.98395341765645
 20
132.1722966449699
 30
0.0
 11
35.17485120444742
 21
132.1722966449699
 31
0.0
  0
LINE
  5
25A
330
1F
100
AcDbEntity
  8
0
  6
Continuous
 62
     7
100
AcDbLine
 10
37.29243893094117
 20
133.4222966449698
 30
0.0
 11
32.79243893094117
 21
133.4222966449699
 31
0.0
  0
LINE
  5
25B
330
1F
100
AcDbEntity
  8
0
  6
Continuous
 62
     7
100
AcDbLine
 10
30.54243893094112
 20
128.1722966449699
 30
0.0
 11
30.54243893094112
 21
131.1722966449699
 31
0.0
  0
LINE
  5
25C
330
1F
100
AcDbEntity
  8
0
  6
Continuous
 62
     7
100
AcDbLine
 10
48.29243893094117
 20
135.6722966449698
 30
0.0
 11
32.29243893094112
 21
135.6722966449699
 31
0.0
  0
LINE
  5
25D
330
1F
100
AcDbEntity
  8
0
  6
Continuous
 62
     7
100
AcDbLine
 10
29.79243893094112
 20
125.1722966449699
 30
0.0
 11
29.79243893094112
 21
128.1722966449699
 31
0.0
  0
LINE
  5
25E
330
1F
100
AcDbEntity
  8
0
  6
Continuous
 62
     7
100
AcDbLine
 10
33.17681393094121
 20
126.1222966449699
 30
0.0
 11
33.17681393094121
 21
126.41479664497
 31
0.0
  0
LINE
  5
25F
330
1F
100
AcDbEntity
  8
0
  6
Continuous
 62
     7
100
AcDbLine
 10
47.7655639309411
 20
127.0647966449699
 30
0.0
 11
47.7655639309411
 21
126.1222966449699
 31
0.0
  0
LINE
  5
260
330
1F
100
AcDbEntity
  8
0
  6
Continuous
 62
     7
100
AcDbLine
 10
47.45681393094112
 20
127.0647966449699
 30
0.0
 11
47.7655639309411
 21
127.0647966449699
 31
0.0
  0
LINE
  5
261
330
1F
100
AcDbEntity
  8
0
  6
Continuous
 62
     7
100
AcDbLine
 10
33.33931393094123
 20
126.5772966449699
 30
0.0
 11
33.17681393094121
 21
126.5772966449699
 31
0.0
  0
LINE
  5
262
330
1F
100
AcDbEntity
  8
0
  6
Continuous
 62
     7
100
AcDbLine
 10
33.33931393094123
 20
126.41479664497
 30
0.0
 11
33.33931393094123
 21
126.5772966449699
 31
0.0
  0
LINE
  5
263
330
1F
100
AcDbEntity
  8
0
  6
Continuous
 62
     7
100
AcDbLine
 10
33.17681393094121
 20
126.41479664497
 30
0.0
 11
33.33931393094123
 21
126.41479664497
 31
0.0
  0
LINE
  5
264
330
1F
100
AcDbEntity
  8
0
  6
Continuous
 62
     7
100
AcDbLine
 10
30.54243893094112
 20
128.1722966449699
 30
0.0
 11
29.79243893094112
 21
128.1722966449699
 31
0.0
  0
LINE
  5
265
330
1F
100
AcDbEntity
  8
0
  6
Continuous
 62
     7
100
AcDbLine
 10
30.79243893094106
 20
122.1722966449699
 30
0.0
 11
30.79243893094112
 21
125.1722966449699
 31
0.0
  0
LINE
  5
266
330
1F
100
AcDbEntity
  8
0
  6
Continuous
 62
     7
100
AcDbLine
 10
30.99243893094105
 20
122.1722966449698
 30
0.0
 11
30.99243893094111
 21
125.1722966449699
 31
0.0
  0
LINE
  5
267
330
1F
100
AcDbEntity
  8
0
  6
Continuous
 62
     7
100
AcDbLine
 10
38.74243893094105
 20
115.5722966449698
 30
0.0
 11
39.20874658909607
 21
116.5722966449698
 31
0.0
  0
LINE
  5
268
330
1F
100
AcDbEntity
  8
0
  6
Continuous
 62
     7
100
AcDbLine
 10
41.37613127278605
 20
116.5722966449698
 30
0.0
 11
41.84243893094107
 21
115.5722966449698
 31
0.0
  0
LINE
  5
269
330
1F
100
AcDbEntity
  8
0
  6
Continuous
 62
     7
100
AcDbLine
 10
43.29243893094106
 20
116.5722966449698
 30
0.0
 11
41.37613127278605
 21
116.5722966449698
 31
0.0
  0
LINE
  5
26A
330
1F
100
AcDbEntity
  8
0
  6
Continuous
 62
     7
100
AcDbLine
 10
42.04243893094112
 20
123.1722966449698
 30
0.0
 11
42.04243893094112
 21
127.8903928886729
 31
0.0
  0
LINE
  5
26B
330
1F
100
AcDbEntity
  8
0
  6
Continuous
 62
     7
100
AcDbLine
 10
43.74243893094116
 20
127.5906370214685
 30
0.0
 11
43.74243893094111
 21
125.1722966449698
 31
0.0
  0
LINE
  5
26C
330
1F
100
AcDbEntity
  8
0
  6
Continuous
 62
     7
100
AcDbLine
 10
47.45681393094112
 20
127.1947966449699
 30
0.0
 11
47.45681393094112
 21
127.0647966449699
 31
0.0
  0
LINE
  5
26D
330
1F
100
AcDbEntity
  8
0
  6
Continuous
 62
     7
100
AcDbLine
 10
38.54243893094112
 20
127.890392888673
 30
0.0
 11
38.54243893094112
 21
123.1722966449698
 31
0.0
  0
LINE
  5
26E
330
1F
100
AcDbEntity
  8
0
  6
Continuous
 62
     7
100
AcDbLine
 10
40.22910314060029
 20
126.8206820598263
 30
0.0
 11
39.59732172694761
 21
126.8206820598263
 31
0.0
  0
LINE
  5
26F
330
1F
100
AcDbEntity
  8
0
  6
Continuous
 62
     7
100
AcDbLine
 10
40.98755613493405
 20
126.8206820598263
 30
0.0
 11
40.35930450247408
 21
126.8206820598263
 31
0.0
  0
LINE
  5
270
330
1F
100
AcDbEntity
  8
0
  6
Continuous
 62
     7
100
AcDbLine
 10
40.74287487912837
 20
126.5148304900692
 30
0.0
 11
39.84200298275307
 21
126.5148304900692
 31
0.0
  0
LINE
  5
271
330
1F
100
AcDbEntity
  8
0
  6
Continuous
 62
     7
100
AcDbLine
 10
40.22910314060029
 20
127.4072266600467
 30
0.0
 11
40.22910314060029
 21
126.8206820598263
 31
0.0
  0
LINE
  5
272
330
1F
100
AcDbEntity
  8
0
  6
Continuous
 62
     7
100
AcDbLine
 10
39.84200298275307
 20
126.5148304900692
 30
0.0
 11
39.84200298275307
 21
126.3846291281956
 31
0.0
  0
LINE
  5
273
330
1F
100
AcDbEntity
  8
0
  6
Continuous
 62
     7
100
AcDbLine
 10
40.35930450247408
 20
126.8206820598263
 30
0.0
 11
40.35930450247408
 21
127.4072266600467
 31
0.0
  0
LINE
  5
274
330
1F
100
AcDbEntity
  8
0
  6
Continuous
 62
     7
100
AcDbLine
 10
40.74287487912837
 20
126.3846291281956
 30
0.0
 11
40.74287487912837
 21
126.5148304900692
 31
0.0
  0
LINE
  5
275
330
1F
100
AcDbEntity
  8
0
  6
Continuous
 62
     7
100
AcDbLine
 10
40.35930450247408
 20
127.4072266600467
 30
0.0
 11
40.22910314060029
 21
127.4072266600467
 31
0.0
  0
LINE
  5
276
330
1F
100
AcDbEntity
  8
0
  6
Continuous
 62
     7
100
AcDbLine
 10
39.59732172694761
 20
126.8206820598263
 30
0.0
 11
39.59732172694761
 21
126.6904806979526
 31
0.0
  0
LINE
  5
277
330
1F
100
AcDbEntity
  8
0
  6
Continuous
 62
     7
100
AcDbLine
 10
40.98755613493405
 20
126.6904806979526
 30
0.0
 11
40.98755613493405
 21
126.8206820598263
 31
0.0
  0
LINE
  5
278
330
1F
100
AcDbEntity
  8
0
  6
Continuous
 62
     7
100
AcDbLine
 10
39.59732172694761
 20
126.6904806979526
 30
0.0
 11
40.98755613493405
 21
126.6904806979526
 31
0.0
  0
LINE
  5
279
330
1F
100
AcDbEntity
  8
0
  6
Continuous
 62
     7
100
AcDbLine
 10
40.08668423855876
 20
126.0787775584385
 30
0.0
 11
40.49819362332285
 21
126.0787775584385
 31
0.0
  0
LINE
  5
27A
330
1F
100
AcDbEntity
  8
0
  6
Continuous
 62
     7
100
AcDbLine
 10
40.49819362332285
 20
126.2089789203122
 30
0.0
 11
40.08668423855876
 21
126.2089789203122
 31
0.0
  0
LINE
  5
27B
330
1F
100
AcDbEntity
  8
0
  6
Continuous
 62
     7
100
AcDbLine
 10
39.84200298275307
 20
126.3846291281956
 30
0.0
 11
40.74287487912837
 21
126.3846291281956
 31
0.0
  0
LINE
  5
27C
330
1F
100
AcDbEntity
  8
0
  6
Continuous
 62
     7
100
AcDbLine
 10
40.49819362332285
 20
126.0787775584385
 30
0.0
 11
40.49819362332285
 21
126.2089789203122
 31
0.0
  0
LINE
  5
27D
330
1F
100
AcDbEntity
  8
0
  6
Continuous
 62
     7
100
AcDbLine
 10
40.08668423855876
 20
126.2089789203122
 30
0.0
 11
40.08668423855876
 21
126.0787775584385
 31
0.0
  0
LINE
  5
27E
330
1F
100
AcDbEntity
  8
0
  6
Continuous
 62
     7
100
AcDbLine
 10
41.84243893094107
 20
115.5722966449698
 30
0.0
 11
38.74243893094105
 21
115.5722966449698
 31
0.0
  0
LINE
  5
27F
330
1F
100
AcDbEntity
  8
0
  6
Continuous
 62
     7
100
AcDbLine
 10
32.29243893094106
 20
111.6722966449699
 30
0.0
 11
48.29243893094106
 21
111.6722966449698
 31
0.0
  0
LINE
  5
280
330
1F
100
AcDbEntity
  8
0
  6
Continuous
 62
     7
100
AcDbLine
 10
32.792438930941
 20
113.9222966449699
 30
0.0
 11
47.79243893094106
 21
113.9222966449698
 31
0.0
  0
LINE
  5
281
330
1F
100
AcDbEntity
  8
0
  6
Continuous
 62
     7
100
AcDbLine
 10
39.20874658909607
 20
116.5722966449698
 30
0.0
 11
37.29243893094106
 21
116.5722966449698
 31
0.0
  0
LINE
  5
282
330
1F
100
AcDbEntity
  8
0
  6
Continuous
 62
     7
100
AcDbLine
 10
48.79243893094106
 20
122.6722966449698
 30
0.0
 11
42.54243893094112
 21
122.6722966449698
 31
0.0
  0
LINE
  5
283
330
1F
100
AcDbEntity
  8
0
  6
Continuous
 62
     7
100
AcDbLine
 10
48.79243893094106
 20
124.6722966449698
 30
0.0
 11
44.24243893094111
 21
124.6722966449698
 31
0.0
  0
LINE
  5
284
330
1F
100
AcDbEntity
  8
0
  6
Continuous
 62
     7
100
AcDbLine
 10
47.7655639309411
 20
126.1222966449699
 30
0.0
 11
47.92806393094112
 21
126.1222966449699
 31
0.0
  0
LINE
  5
285
330
1F
100
AcDbEntity
  8
0
  6
Continuous
 62
     7
100
AcDbLine
 10
50.79243893094112
 20
128.1722966449698
 30
0.0
 11
50.04243893094112
 21
128.1722966449698
 31
0.0
  0
LINE
  5
286
330
1F
100
AcDbEntity
  8
0
  6
Continuous
 62
     7
100
AcDbLine
 10
48.79243893094106
 20
122.6722966449698
 30
0.0
 11
48.79243893094106
 21
124.6722966449698
 31
0.0
  0
LINE
  5
287
330
1F
100
AcDbEntity
  8
0
  6
Continuous
 62
     7
100
AcDbLine
 10
47.8305639309411
 20
120.5235466449698
 30
0.0
 11
47.96056393094109
 21
120.6372966449698
 31
0.0
  0
LINE
  5
288
330
1F
100
AcDbEntity
  8
0
  6
Continuous
 62
     7
100
AcDbLine
 10
47.87931393094108
 20
120.7997966449697
 30
0.0
 11
47.84681393094111
 21
120.7510466449697
 31
0.0
  0
LINE
  5
289
330
1F
100
AcDbEntity
  8
0
  6
Continuous
 62
     7
100
AcDbLine
 10
47.79806393094113
 20
127.4222966449699
 30
0.0
 11
47.78181393094111
 21
127.3735466449699
 31
0.0
  0
LINE
  5
28A
330
1F
100
AcDbEntity
  8
0
  6
Continuous
 62
     7
100
AcDbLine
 10
47.92806393094112
 20
127.4222966449699
 30
0.0
 11
47.79806393094113
 21
127.4222966449699
 31
0.0
  0
LINE
  5
28B
330
1F
100
AcDbEntity
  8
0
  6
Continuous
 62
     7
100
AcDbLine
 10
47.96056393094109
 20
120.6372966449698
 30
0.0
 11
47.99306393094106
 21
120.6697966449698
 31
0.0
  0
LINE
  5
28C
330
1F
100
AcDbEntity
  8
0
  6
Continuous
 62
     7
100
AcDbLine
 10
47.89556393094109
 20
120.8485466449698
 30
0.0
 11
47.87931393094108
 21
120.7997966449697
 31
0.0
  0
LINE
  5
28D
330
1F
100
AcDbEntity
  8
0
  6
Continuous
 62
     7
100
AcDbLine
 10
47.89556393094109
 20
120.9135466449698
 30
0.0
 11
47.89556393094109
 21
120.8485466449698
 31
0.0
  0
LINE
  5
28E
330
1F
100
AcDbEntity
  8
0
  6
Continuous
 62
     7
100
AcDbLine
 10
47.87931393094108
 20
120.9622966449698
 30
0.0
 11
47.89556393094109
 21
120.9135466449698
 31
0.0
  0
LINE
  5
28F
330
1F
100
AcDbEntity
  8
0
  6
Continuous
 62
     7
100
AcDbLine
 10
47.84681393094111
 20
121.0110466449698
 30
0.0
 11
47.87931393094108
 21
120.9622966449698
 31
0.0
  0
LINE
  5
290
330
1F
100
AcDbEntity
  8
0
  6
Continuous
 62
     7
100
AcDbLine
 10
47.79806393094107
 20
121.0435466449698
 30
0.0
 11
47.84681393094111
 21
121.0110466449698
 31
0.0
  0
LINE
  5
291
330
1F
100
AcDbEntity
  8
0
  6
Continuous
 62
     7
100
AcDbLine
 10
50.79243893094112
 20
125.1722966449697
 30
0.0
 11
50.79243893094112
 21
128.1722966449698
 31
0.0
  0
LINE
  5
292
330
1F
100
AcDbEntity
  8
0
  6
Continuous
 62
     7
100
AcDbLine
 10
50.79243893094112
 20
125.1722966449697
 30
0.0
 11
50.04243893094112
 21
125.1722966449697
 31
0.0
  0
LINE
  5
293
330
1F
100
AcDbEntity
  8
0
  6
Continuous
 62
     7
100
AcDbLine
 10
50.04243893094112
 20
125.1722966449697
 30
0.0
 11
49.59243893094113
 21
125.1722966449697
 31
0.0
  0
LINE
  5
294
330
1F
100
AcDbEntity
  8
0
  6
Continuous
 62
     7
100
AcDbLine
 10
50.79243893094106
 20
122.1722966449697
 30
0.0
 11
50.04243893094112
 21
122.1722966449697
 31
0.0
  0
LINE
  5
295
330
1F
100
AcDbEntity
  8
0
  6
Continuous
 62
     7
100
AcDbLine
 10
50.04243893094112
 20
122.1722966449697
 30
0.0
 11
49.59243893094107
 21
122.1722966449697
 31
0.0
  0
LINE
  5
296
330
1F
100
AcDbEntity
  8
0
  6
Continuous
 62
     7
100
AcDbLine
 10
50.04243893094106
 20
119.1722966449698
 30
0.0
 11
50.79243893094106
 21
119.1722966449697
 31
0.0
  0
LINE
  5
297
330
1F
100
AcDbEntity
  8
0
  6
Continuous
 62
     7
100
AcDbLine
 10
47.79243893094117
 20
133.4222966449698
 30
0.0
 11
43.29243893094117
 21
133.4222966449698
 31
0.0
  0
LINE
  5
298
330
1F
100
AcDbEntity
  8
0
  6
Continuous
 62
     7
100
AcDbLine
 10
47.71681393094106
 20
120.4260466449698
 30
0.0
 11
47.8305639309411
 21
120.5235466449698
 31
0.0
  0
LINE
  5
299
330
1F
100
AcDbEntity
  8
0
  6
Continuous
 62
     7
100
AcDbLine
 10
47.78181393094111
 20
127.3735466449699
 30
0.0
 11
47.73306393094113
 21
127.3085466449699
 31
0.0
  0
LINE
  5
29A
330
1F
100
AcDbEntity
  8
0
  6
Continuous
 62
     7
100
AcDbLine
 10
47.73306393094113
 20
127.3085466449699
 30
0.0
 11
47.68431393094109
 21
127.2597966449699
 31
0.0
  0
LINE
  5
29B
330
1F
100
AcDbEntity
  8
0
  6
Continuous
 62
     7
100
AcDbLine
 10
47.73306393094107
 20
121.0597966449698
 30
0.0
 11
47.79806393094107
 21
121.0435466449698
 31
0.0
  0
LINE
  5
29C
330
1F
100
AcDbEntity
  8
0
  6
Continuous
 62
     7
100
AcDbLine
 10
52.29243893094106
 20
115.6722966449697
 30
0.0
 11
52.29243893094117
 21
131.6722966449698
 31
0.0
  0
LINE
  5
29D
330
1F
100
AcDbEntity
  8
0
  6
Continuous
 62
     7
100
AcDbLine
 10
47.84681393094111
 20
120.7510466449697
 30
0.0
 11
47.6355639309411
 21
120.5397966449698
 31
0.0
  0
LINE
  5
29E
330
1F
100
AcDbEntity
  8
0
  6
Continuous
 62
     7
100
AcDbLine
 10
47.6355639309411
 20
120.5397966449698
 30
0.0
 11
47.53806393094108
 21
120.4585466449698
 31
0.0
  0
LINE
  5
29F
330
1F
100
AcDbEntity
  8
0
  6
Continuous
 62
     7
100
AcDbLine
 10
47.48931393094109
 20
120.0847966449698
 30
0.0
 11
47.52181393094107
 21
120.1822966449698
 31
0.0
  0
LINE
  5
2A0
330
1F
100
AcDbEntity
  8
0
  6
Continuous
 62
     7
100
AcDbLine
 10
47.52181393094107
 20
120.1822966449698
 30
0.0
 11
47.60306393094108
 21
120.2960466449697
 31
0.0
  0
LINE
  5
2A1
330
1F
100
AcDbEntity
  8
0
  6
Continuous
 62
     7
100
AcDbLine
 10
47.60306393094108
 20
120.2960466449697
 30
0.0
 11
47.71681393094106
 21
120.4260466449698
 31
0.0
  0
LINE
  5
2A2
330
1F
100
AcDbEntity
  8
0
  6
Continuous
 62
     7
100
AcDbLine
 10
47.68431393094109
 20
127.2597966449699
 30
0.0
 11
47.61931393094115
 21
127.2272966449699
 31
0.0
  0
LINE
  5
2A3
330
1F
100
AcDbEntity
  8
0
  6
Continuous
 62
     7
100
AcDbLine
 10
47.60306393094108
 20
121.0435466449698
 30
0.0
 11
47.66806393094107
 21
121.0597966449698
 31
0.0
  0
LINE
  5
2A4
330
1F
100
AcDbEntity
  8
0
  6
Continuous
 62
     7
100
AcDbLine
 10
47.55431393094109
 20
121.0110466449698
 30
0.0
 11
47.60306393094108
 21
121.0435466449698
 31
0.0
  0
LINE
  5
2A5
330
1F
100
AcDbEntity
  8
0
  6
Continuous
 62
     7
100
AcDbLine
 10
47.52181393094107
 20
120.9622966449698
 30
0.0
 11
47.55431393094109
 21
121.0110466449698
 31
0.0
  0
LINE
  5
2A6
330
1F
100
AcDbEntity
  8
0
  6
Continuous
 62
     7
100
AcDbLine
 10
47.65181393094106
 20
121.2222966449698
 30
0.0
 11
47.57056393094111
 21
121.2060466449698
 31
0.0
  0
LINE
  5
2A7
330
1F
100
AcDbEntity
  8
0
  6
Continuous
 62
     7
100
AcDbLine
 10
47.50556393094105
 20
120.9135466449698
 30
0.0
 11
47.52181393094107
 21
120.9622966449698
 31
0.0
  0
LINE
  5
2A8
330
1F
100
AcDbEntity
  8
0
  6
Continuous
 62
     7
100
AcDbLine
 10
47.50556393094105
 20
120.8485466449698
 30
0.0
 11
47.50556393094105
 21
120.9135466449698
 31
0.0
  0
LINE
  5
2A9
330
1F
100
AcDbEntity
  8
0
  6
Continuous
 62
     7
100
AcDbLine
 10
48.12306393094106
 20
120.0847966449698
 30
0.0
 11
47.48931393094109
 21
120.0847966449698
 31
0.0
  0
LINE
  5
2AA
330
1F
100
AcDbEntity
  8
0
  6
Continuous
 62
     7
100
AcDbLine
 10
47.66806393094107
 20
121.0597966449698
 30
0.0
 11
47.73306393094107
 21
121.0597966449698
 31
0.0
  0
LINE
  5
2AB
330
1F
100
AcDbEntity
  8
0
  6
Continuous
 62
     7
100
AcDbLine
 10
47.74931393094109
 20
121.2222966449698
 30
0.0
 11
47.65181393094106
 21
121.2222966449698
 31
0.0
  0
LINE
  5
2AC
330
1F
100
AcDbEntity
  8
0
  6
Continuous
 62
     7
100
AcDbLine
 10
47.8305639309411
 20
121.2060466449698
 30
0.0
 11
47.74931393094109
 21
121.2222966449698
 31
0.0
  0
LINE
  5
2AD
330
1F
100
AcDbEntity
  8
0
  6
Continuous
 62
     7
100
AcDbLine
 10
47.26181393094107
 20
120.0197966449698
 30
0.0
 11
47.26181393094107
 21
119.9222966449698
 31
0.0
  0
LINE
  5
2AE
330
1F
100
AcDbEntity
  8
0
  6
Continuous
 62
     7
100
AcDbLine
 10
47.26181393094107
 20
119.9222966449698
 30
0.0
 11
48.12306393094106
 21
119.9222966449698
 31
0.0
  0
LINE
  5
2AF
330
1F
100
AcDbEntity
  8
0
  6
Continuous
 62
     7
100
AcDbLine
 10
47.29431393094104
 20
120.1335466449698
 30
0.0
 11
47.26181393094107
 21
120.0197966449698
 31
0.0
  0
LINE
  5
2B0
330
1F
100
AcDbEntity
  8
0
  6
Continuous
 62
     7
100
AcDbLine
 10
47.35931393094104
 20
120.2472966449698
 30
0.0
 11
47.29431393094104
 21
120.1335466449698
 31
0.0
  0
LINE
  5
2B1
330
1F
100
AcDbEntity
  8
0
  6
Continuous
 62
     7
100
AcDbLine
 10
47.44056393094111
 20
120.3447966449698
 30
0.0
 11
47.35931393094104
 21
120.2472966449698
 31
0.0
  0
LINE
  5
2B2
330
1F
100
AcDbEntity
  8
0
  6
Continuous
 62
     7
100
AcDbLine
 10
47.53806393094108
 20
120.4585466449698
 30
0.0
 11
47.44056393094111
 21
120.3447966449698
 31
0.0
  0
LINE
  5
2B3
330
1F
100
AcDbEntity
  8
0
  6
Continuous
 62
     7
100
AcDbLine
 10
47.32681393094107
 20
120.8485466449698
 30
0.0
 11
47.50556393094105
 21
120.8485466449698
 31
0.0
  0
LINE
  5
2B4
330
1F
100
AcDbEntity
  8
0
  6
Continuous
 62
     7
100
AcDbLine
 10
47.32681393094107
 20
120.9135466449698
 30
0.0
 11
47.32681393094107
 21
120.8485466449698
 31
0.0
  0
LINE
  5
2B5
330
1F
100
AcDbEntity
  8
0
  6
Continuous
 62
     7
100
AcDbLine
 10
47.57056393094111
 20
121.2060466449698
 30
0.0
 11
47.47306393094108
 21
121.1572966449698
 31
0.0
  0
LINE
  5
2B6
330
1F
100
AcDbEntity
  8
0
  6
Continuous
 62
     7
100
AcDbLine
 10
47.47306393094108
 20
121.1572966449698
 30
0.0
 11
47.40806393094108
 21
121.0922966449698
 31
0.0
  0
LINE
  5
2B7
330
1F
100
AcDbEntity
  8
0
  6
Continuous
 62
     7
100
AcDbLine
 10
47.40806393094108
 20
121.0922966449698
 30
0.0
 11
47.34306393094109
 21
120.9947966449698
 31
0.0
  0
LINE
  5
2B8
330
1F
100
AcDbEntity
  8
0
  6
Continuous
 62
     7
100
AcDbLine
 10
47.34306393094109
 20
120.9947966449698
 30
0.0
 11
47.32681393094107
 21
120.9135466449698
 31
0.0
  0
LINE
  5
2B9
330
1F
100
AcDbEntity
  8
0
  6
Continuous
 62
     7
100
AcDbLine
 10
48.79243893094106
 20
124.6722966449698
 30
0.0
 11
48.79243893094112
 21
130.6722966449698
 31
0.0
  0
LINE
  5
2BA
330
1F
100
AcDbEntity
  8
0
  6
Continuous
 62
     7
100
AcDbLine
 10
50.04243893094112
 20
131.1722966449698
 30
0.0
 11
50.04243893094112
 21
128.1722966449698
 31
0.0
  0
LINE
  5
2BB
330
1F
100
AcDbEntity
  8
0
  6
Continuous
 62
     7
100
AcDbLine
 10
47.61931393094115
 20
127.2272966449699
 30
0.0
 11
47.57056393094111
 21
127.2110466449699
 31
0.0
  0
LINE
  5
2BC
330
1F
100
AcDbEntity
  8
0
  6
Continuous
 62
     7
100
AcDbLine
 10
45.41002665743493
 20
132.1722966449698
 30
0.0
 11
43.6009244442259
 21
132.1722966449698
 31
0.0
  0
LINE
  5
2BD
330
1F
100
AcDbEntity
  8
0
  6
Continuous
 62
     7
100
AcDbLine
 10
47.29243893094112
 20
132.1722966449698
 30
0.0
 11
45.41002665743493
 21
132.1722966449698
 31
0.0
  0
LINE
  5
2BE
330
1F
100
AcDbEntity
  8
0
  6
Continuous
 62
     7
100
AcDbLine
 10
43.29243893094117
 20
134.1722966449698
 30
0.0
 11
43.29243893094117
 21
133.4222966449698
 31
0.0
  0
LINE
  5
2BF
330
1F
100
AcDbEntity
  8
0
  6
Continuous
 62
     7
100
AcDbLine
 10
37.29243893094117
 20
134.1722966449698
 30
0.0
 11
37.29243893094117
 21
133.4222966449698
 31
0.0
  0
LINE
  5
2C0
330
1F
100
AcDbEntity
  8
0
  6
Continuous
 62
     7
100
AcDbLine
 10
37.29243893094117
 20
134.1722966449698
 30
0.0
 11
43.29243893094117
 21
134.1722966449698
 31
0.0
  0
LINE
  5
2C1
330
1F
100
AcDbEntity
  8
0
  6
Continuous
 62
     7
100
AcDbLine
 10
43.09243893094113
 20
135.7222966449699
 30
0.0
 11
43.09243893094113
 21
135.6722966449698
 31
0.0
  0
LINE
  5
2C2
330
1F
100
AcDbEntity
  8
0
  6
Continuous
 62
     7
100
AcDbLine
 10
41.45916511989897
 20
136.3165878149749
 30
0.0
 11
41.45916511989897
 21
136.1911538234792
 31
0.0
  0
LINE
  5
2C3
330
1F
100
AcDbEntity
  8
0
  6
Continuous
 62
     7
100
AcDbLine
 10
38.61568984918922
 20
135.7222966449699
 30
0.0
 11
38.61568984918922
 21
135.6722966449699
 31
0.0
  0
LINE
  5
2C4
330
1F
100
AcDbEntity
  8
0
  6
Continuous
 62
     7
100
AcDbLine
 10
38.05000442424002
 20
135.7222966449699
 30
0.0
 11
38.05000442424002
 21
135.6722966449699
 31
0.0
  0
LINE
  5
2C5
330
1F
100
AcDbEntity
  8
0
  6
Continuous
 62
     7
100
AcDbLine
 10
43.09243893094113
 20
135.7222966449699
 30
0.0
 11
38.61568984918922
 21
135.7222966449699
 31
0.0
  0
LINE
  5
2C6
330
1F
100
AcDbEntity
  8
0
  6
Continuous
 62
     7
100
AcDbLine
 10
39.12571274198338
 20
136.0684662383026
 30
0.0
 11
39.12571274198338
 21
136.3165878149749
 31
0.0
  0
LINE
  5
2C7
330
1F
100
AcDbEntity
  8
0
  6
Continuous
 62
     7
100
AcDbLine
 10
37.49243893094116
 20
135.7222966449699
 30
0.0
 11
37.49243893094116
 21
135.6722966449699
 31
0.0
  0
LINE
  5
2C8
330
1F
100
AcDbEntity
  8
0
  6
Continuous
 62
     7
100
AcDbLine
 10
38.05000442424002
 20
135.7222966449699
 30
0.0
 11
37.49243893094116
 21
135.7222966449699
 31
0.0
  0
LINE
  5
2C9
330
1F
100
AcDbEntity
  8
0
  6
Continuous
 62
     7
100
AcDbLine
 10
41.09657393094115
 20
136.4145185574049
 30
0.0
 11
41.09657393094115
 21
136.2425598684266
 31
0.0
  0
LINE
  5
2CA
330
1F
100
AcDbEntity
  8
0
  6
Continuous
 62
     7
100
AcDbLine
 10
39.48830393094114
 20
136.4145185574049
 30
0.0
 11
39.48830393094114
 21
136.2425598684266
 31
0.0
  0
LINE
  5
2CB
330
1F
100
AcDbEntity
  8
1
  6
DOT_CENTER
 62
     7
100
AcDbLine
 10
35.50022580689689
 20
96.97229626112944
 30
0.0
 11
35.50022580689689
 21
97.47229626112947
 31
0.0
  0
LINE
  5
2CC
330
1F
100
AcDbEntity
  8
1
  6
DOT_CENTER
 62
     7
100
AcDbLine
 10
45.0846520549854
 20
96.97229626112944
 30
0.0
 11
45.0846520549854
 21
97.47229626112947
 31
0.0
  0
LINE
  5
2CD
330
1F
100
AcDbEntity
  8
1
  6
DOT_CENTER
 62
     7
100
AcDbLine
 10
40.29243893094112
 20
85.5522962611294
 30
0.0
 11
40.29243893094112
 21
79.3922962611294
 31
0.0
  0
LINE
  5
2CE
330
1F
100
AcDbEntity
  8
1
  6
DOT_CENTER
 62
     7
100
AcDbLine
 10
43.37243893094116
 20
82.47229626112942
 30
0.0
 11
37.21243893094113
 21
82.47229626112942
 31
0.0
  0
LINE
  5
2CF
330
1F
100
AcDbEntity
  8
0
  6
Continuous
 62
     7
100
AcDbLine
 10
37.29243893094112
 20
79.47229626112939
 30
0.0
 11
35.49243893094116
 21
77.67229626112943
 31
0.0
  0
LINE
  5
2D0
330
1F
100
AcDbEntity
  8
0
  6
Continuous
 62
     7
100
AcDbLine
 10
32.90022580689693
 20
96.97229626112944
 30
0.0
 11
32.90022580689693
 21
97.47229626112947
 31
0.0
  0
LINE
  5
2D1
330
1F
100
AcDbEntity
  8
0
  6
Continuous
 62
     7
100
AcDbLine
 10
32.90022580689693
 20
97.47229626112947
 30
0.0
 11
38.10022580689692
 21
97.47229626112947
 31
0.0
  0
LINE
  5
2D2
330
1F
100
AcDbEntity
  8
0
  6
Continuous
 62
     7
100
AcDbLine
 10
32.69243893094109
 20
97.47229626112947
 30
0.0
 11
32.90022580689693
 21
97.47229626112947
 31
0.0
  0
LINE
  5
2D3
330
1F
100
AcDbEntity
  8
0
  6
Continuous
 62
     7
100
AcDbLine
 10
32.69243893094109
 20
96.97229626112944
 30
0.0
 11
32.69243893094109
 21
97.47229626112947
 31
0.0
  0
LINE
  5
2D4
330
1F
100
AcDbEntity
  8
0
  6
Continuous
 62
     7
100
AcDbLine
 10
37.40323488830241
 20
82.22229626112942
 30
0.0
 11
37.50362197746428
 21
82.22229626112942
 31
0.0
  0
LINE
  5
2D5
330
1F
100
AcDbEntity
  8
0
  6
Continuous
 62
     7
100
AcDbLine
 10
37.50362197746428
 20
82.72229626112942
 30
0.0
 11
37.40323488830241
 21
82.72229626112942
 31
0.0
  0
LINE
  5
2D6
330
1F
100
AcDbEntity
  8
0
  6
Continuous
 62
     7
100
AcDbLine
 10
35.49243893094116
 20
77.67229626112943
 30
0.0
 11
37.29243893094117
 21
77.67229626112943
 31
0.0
  0
LINE
  5
2D7
330
1F
100
AcDbEntity
  8
0
  6
Continuous
 62
     7
100
AcDbLine
 10
29.79243893094106
 20
71.47229626112944
 30
0.0
 11
28.29243893094106
 21
71.47229626112942
 31
0.0
  0
LINE
  5
2D8
330
1F
100
AcDbEntity
  8
0
  6
Continuous
 62
     7
100
AcDbLine
 10
37.29243893094117
 20
71.47229626112944
 30
0.0
 11
32.29243893094112
 21
71.47229626112942
 31
0.0
  0
LINE
  5
2D9
330
1F
100
AcDbEntity
  8
0
  6
Continuous
 62
     7
100
AcDbLine
 10
29.79243893094112
 20
69.17229626112943
 30
0.0
 11
28.29243893094106
 21
69.17229626112943
 31
0.0
  0
LINE
  5
2DA
330
1F
100
AcDbEntity
  8
0
  6
Continuous
 62
     7
100
AcDbLine
 10
28.29243893094106
 20
71.47229626112942
 30
0.0
 11
28.29243893094106
 21
69.17229626112943
 31
0.0
  0
LINE
  5
2DB
330
1F
100
AcDbEntity
  8
0
  6
Continuous
 62
     7
100
AcDbLine
 10
48.29243893094117
 20
71.47229626112942
 30
0.0
 11
43.29243893094117
 21
71.47229626112944
 31
0.0
  0
LINE
  5
2DC
330
1F
100
AcDbEntity
  8
0
  6
Continuous
 62
     7
100
AcDbLine
 10
43.29243893094117
 20
69.17229626112943
 30
0.0
 11
43.29243893094117
 21
65.47229626112942
 31
0.0
  0
LINE
  5
2DD
330
1F
100
AcDbEntity
  8
0
  6
Continuous
 62
     7
100
AcDbLine
 10
43.29243893094117
 20
71.47229626112944
 30
0.0
 11
43.29243893094117
 21
77.67229626112943
 31
0.0
  0
LINE
  5
2DE
330
1F
100
AcDbEntity
  8
0
  6
Continuous
 62
     7
100
AcDbLine
 10
47.79243893094117
 20
65.47229626112942
 30
0.0
 11
43.29243893094117
 21
65.47229626112942
 31
0.0
  0
LINE
  5
2DF
330
1F
100
AcDbEntity
  8
0
  6
Continuous
 62
     7
100
AcDbLine
 10
43.29243893094117
 20
77.67229626112943
 30
0.0
 11
45.09243893094113
 21
77.67229626112943
 31
0.0
  0
LINE
  5
2E0
330
1F
100
AcDbEntity
  8
0
  6
Continuous
 62
     7
100
AcDbLine
 10
48.29243893094117
 20
69.17229626112943
 30
0.0
 11
43.29243893094117
 21
69.17229626112943
 31
0.0
  0
LINE
  5
2E1
330
1F
100
AcDbEntity
  8
0
  6
Continuous
 62
     7
100
AcDbLine
 10
47.68465205498542
 20
97.47229626112947
 30
0.0
 11
47.89243893094108
 21
97.47229626112947
 31
0.0
  0
LINE
  5
2E2
330
1F
100
AcDbEntity
  8
0
  6
Continuous
 62
     7
100
AcDbLine
 10
47.68465205498542
 20
96.97229626112944
 30
0.0
 11
47.68465205498542
 21
97.47229626112947
 31
0.0
  0
LINE
  5
2E3
330
1F
100
AcDbEntity
  8
0
  6
Continuous
 62
     7
100
AcDbLine
 10
42.48465205498538
 20
97.47229626112947
 30
0.0
 11
47.68465205498542
 21
97.47229626112947
 31
0.0
  0
LINE
  5
2E4
330
1F
100
AcDbEntity
  8
0
  6
Continuous
 62
     7
100
AcDbLine
 10
42.48465205498538
 20
96.97229626112944
 30
0.0
 11
42.48465205498538
 21
97.47229626112947
 31
0.0
  0
LINE
  5
2E5
330
1F
100
AcDbEntity
  8
0
  6
Continuous
 62
     7
100
AcDbLine
 10
42.48465205498538
 20
96.97229626112944
 30
0.0
 11
43.29243893094134
 21
96.97229626112944
 31
0.0
  0
LINE
  5
2E6
330
1F
100
AcDbEntity
  8
0
  6
Continuous
 62
     7
100
AcDbLine
 10
45.09243893094124
 20
96.97229626112944
 30
0.0
 11
43.29243893094134
 21
96.97229626112944
 31
0.0
  0
LINE
  5
2E7
330
1F
100
AcDbEntity
  8
0
  6
Continuous
 62
     7
100
AcDbLine
 10
47.79243893094117
 20
96.97229626112944
 30
0.0
 11
47.89243893094108
 21
96.97229626112944
 31
0.0
  0
LINE
  5
2E8
330
1F
100
AcDbEntity
  8
0
  6
Continuous
 62
     7
100
AcDbLine
 10
47.79243893094117
 20
96.97229626112944
 30
0.0
 11
47.68465205498542
 21
96.97229626112944
 31
0.0
  0
LINE
  5
2E9
330
1F
100
AcDbEntity
  8
0
  6
Continuous
 62
     7
100
AcDbLine
 10
47.68465205498542
 20
96.97229626112944
 30
0.0
 11
45.09243893094124
 21
96.97229626112944
 31
0.0
  0
LINE
  5
2EA
330
1F
100
AcDbEntity
  8
0
  6
Continuous
 62
     7
100
AcDbLine
 10
45.09243893094113
 20
77.67229626112943
 30
0.0
 11
43.29243893094117
 21
79.47229626112939
 31
0.0
  0
LINE
  5
2EB
330
1F
100
AcDbEntity
  8
0
  6
Continuous
 62
     7
100
AcDbLine
 10
43.29243893094117
 20
78.42229626112938
 30
0.0
 11
43.29243893094117
 21
77.67229626112943
 31
0.0
  0
LINE
  5
2EC
330
1F
100
AcDbEntity
  8
0
  6
Continuous
 62
     7
100
AcDbLine
 10
42.53487343764233
 20
84.14904534288134
 30
0.0
 11
41.45916511989897
 21
83.07333702513797
 31
0.0
  0
LINE
  5
2ED
330
1F
100
AcDbEntity
  8
0
  6
Continuous
 62
     7
100
AcDbLine
 10
42.16501366737016
 20
84.6866728904515
 30
0.0
 11
42.09404726622275
 21
84.61570648930409
 31
0.0
  0
LINE
  5
2EE
330
1F
100
AcDbEntity
  8
0
  6
Continuous
 62
     7
100
AcDbLine
 10
42.49243893094116
 20
86.27229626112945
 30
0.0
 11
43.2924389309414
 21
86.27229626112945
 31
0.0
  0
LINE
  5
2EF
330
1F
100
AcDbEntity
  8
0
  6
Continuous
 62
     7
100
AcDbLine
 10
42.49243893094116
 20
86.27229626112945
 30
0.0
 11
42.49243893094122
 21
85.97229626112944
 31
0.0
  0
LINE
  5
2F0
330
1F
100
AcDbEntity
  8
0
  6
Continuous
 62
     7
100
AcDbLine
 10
42.49243893094122
 20
85.97229626112944
 30
0.0
 11
43.29243893094117
 21
85.97229626112944
 31
0.0
  0
LINE
  5
2F1
330
1F
100
AcDbEntity
  8
0
  6
Continuous
 62
     7
100
AcDbLine
 10
43.18164297357988
 20
82.72229626112942
 30
0.0
 11
43.08125588441801
 21
82.72229626112942
 31
0.0
  0
LINE
  5
2F2
330
1F
100
AcDbEntity
  8
0
  6
Continuous
 62
     7
100
AcDbLine
 10
42.44654720382137
 20
84.26109964571616
 30
0.0
 11
42.51755020812398
 21
84.3321026500188
 31
0.0
  0
LINE
  5
2F3
330
1F
100
AcDbEntity
  8
0
  6
Continuous
 62
     7
100
AcDbLine
 10
43.29243893094117
 20
79.47229626112939
 30
0.0
 11
43.29243893094117
 21
85.97229626112944
 31
0.0
  0
LINE
  5
2F4
330
1F
100
AcDbEntity
  8
0
  6
Continuous
 62
     7
100
AcDbLine
 10
43.08125588441801
 20
82.22229626112942
 30
0.0
 11
43.18164297357988
 21
82.22229626112942
 31
0.0
  0
LINE
  5
2F5
330
1F
100
AcDbEntity
  8
0
  6
Continuous
 62
     7
100
AcDbLine
 10
42.51755020812398
 20
80.61248987224003
 30
0.0
 11
42.44654720382137
 21
80.68349287654267
 31
0.0
  0
LINE
  5
2F6
330
1F
100
AcDbEntity
  8
0
  6
Continuous
 62
     7
100
AcDbLine
 10
41.81271851049219
 20
81.51770210652758
 30
0.0
 11
41.24703308554298
 21
80.95201668157834
 31
0.0
  0
LINE
  5
2F7
330
1F
100
AcDbEntity
  8
0
  6
Continuous
 62
     7
100
AcDbLine
 10
41.45916511989897
 20
81.87125549712083
 30
0.0
 11
41.81271851049219
 21
81.51770210652758
 31
0.0
  0
LINE
  5
2F8
330
1F
100
AcDbEntity
  8
0
  6
Continuous
 62
     7
100
AcDbLine
 10
42.09404726622275
 20
80.32888603295474
 30
0.0
 11
42.16501366737016
 21
80.25791963180735
 31
0.0
  0
LINE
  5
2F9
330
1F
100
AcDbEntity
  8
0
  6
Continuous
 62
     7
100
AcDbLine
 10
39.69139816693264
 20
81.30557007217165
 30
0.0
 11
38.61568984918922
 21
80.22986175442823
 31
0.0
  0
LINE
  5
2FA
330
1F
100
AcDbEntity
  8
0
  6
Continuous
 62
     7
100
AcDbLine
 10
38.05000442424002
 20
80.7955471793775
 30
0.0
 11
39.12571274198338
 21
81.87125549712083
 31
0.0
  0
LINE
  5
2FB
330
1F
100
AcDbEntity
  8
0
  6
Continuous
 62
     7
100
AcDbLine
 10
40.8934796949497
 20
83.63902245008721
 30
0.0
 11
41.96918801269307
 21
84.71473076783057
 31
0.0
  0
LINE
  5
2FC
330
1F
100
AcDbEntity
  8
0
  6
Continuous
 62
     7
100
AcDbLine
 10
38.10022580689692
 20
97.47229626112947
 30
0.0
 11
42.48465205498538
 21
97.47229626112947
 31
0.0
  0
LINE
  5
2FD
330
1F
100
AcDbEntity
  8
0
  6
Continuous
 62
     7
100
AcDbLine
 10
42.48465205498538
 20
96.97229626112944
 30
0.0
 11
38.10022580689692
 21
96.97229626112944
 31
0.0
  0
LINE
  5
2FE
330
1F
100
AcDbEntity
  8
0
  6
Continuous
 62
     7
100
AcDbLine
 10
38.10022580689692
 20
96.97229626112944
 30
0.0
 11
38.10022580689692
 21
97.47229626112947
 31
0.0
  0
LINE
  5
2FF
330
1F
100
AcDbEntity
  8
0
  6
Continuous
 62
     7
100
AcDbLine
 10
39.48830393094114
 20
82.47229626112942
 30
0.0
 11
39.12571274198332
 21
83.07333702513797
 31
0.0
  0
LINE
  5
300
330
1F
100
AcDbEntity
  8
0
  6
Continuous
 62
     7
100
AcDbLine
 10
39.12571274198338
 20
81.87125549712083
 30
0.0
 11
39.48830393094114
 21
82.47229626112942
 31
0.0
  0
LINE
  5
301
330
1F
100
AcDbEntity
  8
0
  6
Continuous
 62
     7
100
AcDbLine
 10
39.12571274198338
 20
81.87125549712083
 30
0.0
 11
39.69139816693264
 21
81.30557007217165
 31
0.0
  0
LINE
  5
302
330
1F
100
AcDbEntity
  8
0
  6
Continuous
 62
     7
100
AcDbLine
 10
41.09657393094115
 20
82.47229626112942
 30
0.0
 11
41.45916511989897
 21
81.87125549712083
 31
0.0
  0
LINE
  5
303
330
1F
100
AcDbEntity
  8
0
  6
Continuous
 62
     7
100
AcDbLine
 10
41.45916511989897
 20
83.07333702513797
 30
0.0
 11
41.09657393094115
 21
82.47229626112942
 31
0.0
  0
LINE
  5
304
330
1F
100
AcDbEntity
  8
0
  6
Continuous
 62
     7
100
AcDbLine
 10
38.07806230161908
 20
84.34487099755843
 30
0.0
 11
38.14902870276644
 21
84.27390459641101
 31
0.0
  0
LINE
  5
305
330
1F
100
AcDbEntity
  8
0
  6
Continuous
 62
     7
100
AcDbLine
 10
40.55419042864135
 20
79.58413315052577
 30
0.0
 11
40.55419042864135
 21
79.68455772363139
 31
0.0
  0
LINE
  5
306
330
1F
100
AcDbEntity
  8
0
  6
Continuous
 62
     7
100
AcDbLine
 10
40.05419042864135
 20
79.68245080821417
 30
0.0
 11
40.05419042864135
 21
79.58209944237264
 31
0.0
  0
LINE
  5
307
330
1F
100
AcDbEntity
  8
0
  6
Continuous
 62
     7
100
AcDbLine
 10
38.09243893094113
 20
86.27229626112945
 30
0.0
 11
42.49243893094116
 21
86.27229626112945
 31
0.0
  0
LINE
  5
308
330
1F
100
AcDbEntity
  8
0
  6
Continuous
 62
     7
100
AcDbLine
 10
39.12571274198332
 20
83.07333702513797
 30
0.0
 11
38.77215935139004
 21
83.42689041573125
 31
0.0
  0
LINE
  5
309
330
1F
100
AcDbEntity
  8
0
  6
Continuous
 62
     7
100
AcDbLine
 10
38.09243893094107
 20
85.97229626112944
 30
0.0
 11
38.09243893094113
 21
86.27229626112945
 31
0.0
  0
LINE
  5
30A
330
1F
100
AcDbEntity
  8
0
  6
Continuous
 62
     7
100
AcDbLine
 10
41.45916511989897
 20
83.07333702513797
 30
0.0
 11
40.8934796949497
 21
83.63902245008721
 31
0.0
  0
LINE
  5
30B
330
1F
100
AcDbEntity
  8
0
  6
Continuous
 62
     7
100
AcDbLine
 10
38.77215935139004
 20
83.42689041573125
 30
0.0
 11
39.33784477633931
 21
83.99257584068049
 31
0.0
  0
LINE
  5
30C
330
1F
100
AcDbEntity
  8
0
  6
Continuous
 62
     7
100
AcDbLine
 10
39.33784477633931
 20
83.99257584068049
 30
0.0
 11
39.69139816693259
 21
83.63902245008721
 31
0.0
  0
LINE
  5
30D
330
1F
100
AcDbEntity
  8
0
  6
Continuous
 62
     7
100
AcDbLine
 10
38.50363554635437
 20
84.62640453400964
 30
0.0
 11
38.43263254205176
 21
84.69740753831225
 31
0.0
  0
LINE
  5
30E
330
1F
100
AcDbEntity
  8
0
  6
Continuous
 62
     7
100
AcDbLine
 10
40.05419042864135
 20
85.36249307988622
 30
0.0
 11
40.05419042864135
 21
85.26214171404466
 31
0.0
  0
LINE
  5
30F
330
1F
100
AcDbEntity
  8
0
  6
Continuous
 62
     7
100
AcDbLine
 10
40.29243893094117
 20
83.27643126112942
 30
0.0
 11
40.8934796949497
 21
83.63902245008721
 31
0.0
  0
LINE
  5
310
330
1F
100
AcDbEntity
  8
0
  6
Continuous
 62
     7
100
AcDbLine
 10
38.09243893094107
 20
85.97229626112944
 30
0.0
 11
42.49243893094122
 21
85.97229626112944
 31
0.0
  0
LINE
  5
311
330
1F
100
AcDbEntity
  8
0
  6
Continuous
 62
     7
100
AcDbLine
 10
38.43263254205176
 20
80.24718498394658
 30
0.0
 11
38.50363554635437
 21
80.31818798824919
 31
0.0
  0
LINE
  5
312
330
1F
100
AcDbEntity
  8
0
  6
Continuous
 62
     7
100
AcDbLine
 10
38.14902870276644
 20
80.67068792584782
 30
0.0
 11
38.07806230161908
 21
80.59972152470043
 31
0.0
  0
LINE
  5
313
330
1F
100
AcDbEntity
  8
0
  6
Continuous
 62
     7
100
AcDbLine
 10
40.8934796949497
 20
81.30557007217159
 30
0.0
 11
40.29243893094117
 21
81.66816126112941
 31
0.0
  0
LINE
  5
314
330
1F
100
AcDbEntity
  8
0
  6
Continuous
 62
     7
100
AcDbLine
 10
40.29243893094117
 20
81.66816126112941
 30
0.0
 11
39.69139816693264
 21
81.30557007217165
 31
0.0
  0
LINE
  5
315
330
1F
100
AcDbEntity
  8
0
  6
Continuous
 62
     7
100
AcDbLine
 10
39.69139816693259
 20
83.63902245008721
 30
0.0
 11
40.29243893094117
 21
83.27643126112942
 31
0.0
  0
LINE
  5
316
330
1F
100
AcDbEntity
  8
0
  6
Continuous
 62
     7
100
AcDbLine
 10
40.55419042864135
 20
85.26003479862744
 30
0.0
 11
40.55419042864135
 21
85.36045937173306
 31
0.0
  0
LINE
  5
317
330
1F
100
AcDbEntity
  8
0
  6
Continuous
 62
     7
100
AcDbLine
 10
41.24703308554298
 20
80.95201668157834
 30
0.0
 11
40.8934796949497
 21
81.30557007217159
 31
0.0
  0
LINE
  5
318
330
1F
100
AcDbEntity
  8
0
  6
Continuous
 62
     7
100
AcDbLine
 10
43.29243893094117
 20
78.42229626112938
 30
0.0
 11
37.29243893094117
 21
78.42229626112938
 31
0.0
  0
LINE
  5
319
330
1F
100
AcDbEntity
  8
0
  6
Continuous
 62
     7
100
AcDbLine
 10
43.29243893094117
 20
79.47229626112939
 30
0.0
 11
37.29243893094112
 21
79.47229626112939
 31
0.0
  0
LINE
  5
31A
330
1F
100
AcDbEntity
  8
0
  6
Continuous
 62
     7
100
AcDbLine
 10
37.29243893094117
 20
77.67229626112943
 30
0.0
 11
37.29243893094117
 21
78.42229626112938
 31
0.0
  0
LINE
  5
31B
330
1F
100
AcDbEntity
  8
0
  6
Continuous
 62
     7
100
AcDbLine
 10
37.29243893094089
 20
86.27229626112945
 30
0.0
 11
37.29243893094089
 21
96.97229626112944
 31
0.0
  0
LINE
  5
31C
330
1F
100
AcDbEntity
  8
0
  6
Continuous
 62
     7
100
AcDbLine
 10
37.29243893094112
 20
85.97229626112944
 30
0.0
 11
37.29243893094112
 21
79.47229626112939
 31
0.0
  0
LINE
  5
31D
330
1F
100
AcDbEntity
  8
0
  6
Continuous
 62
     7
100
AcDbLine
 10
38.10022580689692
 20
96.97229626112944
 30
0.0
 11
37.29243893094089
 21
96.97229626112944
 31
0.0
  0
LINE
  5
31E
330
1F
100
AcDbEntity
  8
0
  6
Continuous
 62
     7
100
AcDbLine
 10
37.29243893094089
 20
86.27229626112945
 30
0.0
 11
38.09243893094113
 21
86.27229626112945
 31
0.0
  0
LINE
  5
31F
330
1F
100
AcDbEntity
  8
0
  6
Continuous
 62
     7
100
AcDbLine
 10
37.29243893094112
 20
85.97229626112944
 30
0.0
 11
38.09243893094107
 21
85.97229626112944
 31
0.0
  0
LINE
  5
320
330
1F
100
AcDbEntity
  8
0
  6
Continuous
 62
     7
100
AcDbLine
 10
37.29243893094117
 20
77.67229626112943
 30
0.0
 11
37.29243893094117
 21
71.47229626112944
 31
0.0
  0
LINE
  5
321
330
1F
100
AcDbEntity
  8
0
  6
Continuous
 62
     7
100
AcDbLine
 10
37.29243893094117
 20
69.17229626112943
 30
0.0
 11
37.29243893094117
 21
65.47229626112942
 31
0.0
  0
LINE
  5
322
330
1F
100
AcDbEntity
  8
0
  6
Continuous
 62
     7
100
AcDbLine
 10
37.29243893094117
 20
65.47229626112942
 30
0.0
 11
43.29243893094117
 21
65.47229626112942
 31
0.0
  0
LINE
  5
323
330
1F
100
AcDbEntity
  8
0
  6
Continuous
 62
     7
100
AcDbLine
 10
43.29243893094117
 20
69.17229626112943
 30
0.0
 11
37.29243893094117
 21
69.17229626112943
 31
0.0
  0
LINE
  5
324
330
1F
100
AcDbEntity
  8
0
  6
Continuous
 62
     7
100
AcDbLine
 10
35.49243893094116
 20
77.67229626112943
 30
0.0
 11
35.49243893094111
 21
96.97229626112944
 31
0.0
  0
LINE
  5
325
330
1F
100
AcDbEntity
  8
0
  6
Continuous
 62
     7
100
AcDbLine
 10
32.79243893094117
 20
96.97229626112944
 30
0.0
 11
32.69243893094109
 21
96.97229626112944
 31
0.0
  0
LINE
  5
326
330
1F
100
AcDbEntity
  8
0
  6
Continuous
 62
     7
100
AcDbLine
 10
32.90022580689693
 20
96.97229626112944
 30
0.0
 11
32.79243893094117
 21
96.97229626112944
 31
0.0
  0
LINE
  5
327
330
1F
100
AcDbEntity
  8
0
  6
Continuous
 62
     7
100
AcDbLine
 10
35.49243893094111
 20
96.97229626112944
 30
0.0
 11
32.90022580689693
 21
96.97229626112944
 31
0.0
  0
LINE
  5
328
330
1F
100
AcDbEntity
  8
0
  6
Continuous
 62
     7
100
AcDbLine
 10
37.29243893094117
 20
65.47229626112942
 30
0.0
 11
32.79243893094117
 21
65.47229626112942
 31
0.0
  0
LINE
  5
329
330
1F
100
AcDbEntity
  8
0
  6
Continuous
 62
     7
100
AcDbLine
 10
37.29243893094089
 20
96.97229626112944
 30
0.0
 11
35.49243893094111
 21
96.97229626112944
 31
0.0
  0
LINE
  5
32A
330
1F
100
AcDbEntity
  8
0
  6
Continuous
 62
     7
100
AcDbLine
 10
37.29243893094117
 20
69.17229626112943
 30
0.0
 11
32.29243893094112
 21
69.17229626112943
 31
0.0
  0
LINE
  5
32B
330
1F
100
AcDbEntity
  8
0
  6
Continuous
 62
     7
100
AcDbLine
 10
32.79243893094117
 20
65.47229626112942
 30
0.0
 11
30.54243893094112
 21
65.47229626112942
 31
0.0
  0
LINE
  5
32C
330
1F
100
AcDbEntity
  8
0
  6
Continuous
 62
     7
100
AcDbLine
 10
30.54243893094112
 20
69.17229626112943
 30
0.0
 11
30.54243893094112
 21
65.47229626112942
 31
0.0
  0
LINE
  5
32D
330
1F
100
AcDbEntity
  8
0
  6
Continuous
 62
     7
100
AcDbLine
 10
32.29243893094112
 20
69.17229626112943
 30
0.0
 11
30.54243893094112
 21
69.17229626112943
 31
0.0
  0
LINE
  5
32E
330
1F
100
AcDbEntity
  8
0
  6
Continuous
 62
     7
100
AcDbLine
 10
30.54243893094112
 20
65.47229626112942
 30
0.0
 11
29.79243893094112
 21
65.47229626112942
 31
0.0
  0
LINE
  5
32F
330
1F
100
AcDbEntity
  8
0
  6
Continuous
 62
     7
100
AcDbLine
 10
29.79243893094112
 20
69.17229626112943
 30
0.0
 11
29.79243893094112
 21
65.47229626112942
 31
0.0
  0
LINE
  5
330
330
1F
100
AcDbEntity
  8
0
  6
Continuous
 62
     7
100
AcDbLine
 10
29.79243893094106
 20
71.47229626112944
 30
0.0
 11
29.79243893094112
 21
96.97229626112944
 31
0.0
  0
LINE
  5
331
330
1F
100
AcDbEntity
  8
0
  6
Continuous
 62
     7
100
AcDbLine
 10
29.79243893094112
 20
96.97229626112944
 30
0.0
 11
32.69243893094109
 21
96.97229626112944
 31
0.0
  0
LINE
  5
332
330
1F
100
AcDbEntity
  8
0
  6
Continuous
 62
     7
100
AcDbLine
 10
32.29243893094112
 20
71.47229626112942
 30
0.0
 11
29.79243893094106
 21
71.47229626112944
 31
0.0
  0
LINE
  5
333
330
1F
100
AcDbEntity
  8
0
  6
Continuous
 62
     7
100
AcDbLine
 10
30.54243893094112
 20
69.17229626112943
 30
0.0
 11
29.79243893094112
 21
69.17229626112943
 31
0.0
  0
LINE
  5
334
330
1F
100
AcDbEntity
  8
0
  6
Continuous
 62
     7
100
AcDbLine
 10
43.2924389309414
 20
86.27229626112945
 30
0.0
 11
43.29243893094134
 21
96.97229626112944
 31
0.0
  0
LINE
  5
335
330
1F
100
AcDbEntity
  8
0
  6
Continuous
 62
     7
100
AcDbLine
 10
45.09243893094124
 20
96.97229626112944
 30
0.0
 11
45.09243893094113
 21
77.67229626112943
 31
0.0
  0
LINE
  5
336
330
1F
100
AcDbEntity
  8
0
  6
Continuous
 62
     7
100
AcDbLine
 10
47.89243893094108
 20
96.97229626112944
 30
0.0
 11
47.89243893094108
 21
97.47229626112947
 31
0.0
  0
LINE
  5
337
330
1F
100
AcDbEntity
  8
0
  6
Continuous
 62
     7
100
AcDbLine
 10
43.29243893094117
 20
71.47229626112944
 30
0.0
 11
37.29243893094117
 21
71.47229626112944
 31
0.0
  0
LINE
  5
338
330
1F
100
AcDbEntity
  8
0
  6
Continuous
 62
     7
100
AcDbLine
 10
50.04243893094112
 20
69.17229626112943
 30
0.0
 11
48.29243893094117
 21
69.17229626112943
 31
0.0
  0
LINE
  5
339
330
1F
100
AcDbEntity
  8
0
  6
Continuous
 62
     7
100
AcDbLine
 10
52.29243893094117
 20
71.47229626112942
 30
0.0
 11
52.29243893094117
 21
69.17229626112943
 31
0.0
  0
LINE
  5
33A
330
1F
100
AcDbEntity
  8
0
  6
Continuous
 62
     7
100
AcDbLine
 10
50.79243893094106
 20
96.97229626112944
 30
0.0
 11
50.79243893094106
 21
71.47229626112944
 31
0.0
  0
LINE
  5
33B
330
1F
100
AcDbEntity
  8
0
  6
Continuous
 62
     7
100
AcDbLine
 10
50.79243893094112
 20
65.47229626112942
 30
0.0
 11
50.04243893094112
 21
65.47229626112942
 31
0.0
  0
LINE
  5
33C
330
1F
100
AcDbEntity
  8
0
  6
Continuous
 62
     7
100
AcDbLine
 10
50.79243893094112
 20
65.47229626112942
 30
0.0
 11
50.79243893094112
 21
69.17229626112943
 31
0.0
  0
LINE
  5
33D
330
1F
100
AcDbEntity
  8
0
  6
Continuous
 62
     7
100
AcDbLine
 10
50.04243893094112
 20
65.47229626112942
 30
0.0
 11
50.04243893094112
 21
69.17229626112943
 31
0.0
  0
LINE
  5
33E
330
1F
100
AcDbEntity
  8
0
  6
Continuous
 62
     7
100
AcDbLine
 10
47.79243893094117
 20
65.47229626112942
 30
0.0
 11
50.04243893094112
 21
65.47229626112942
 31
0.0
  0
LINE
  5
33F
330
1F
100
AcDbEntity
  8
0
  6
Continuous
 62
     7
100
AcDbLine
 10
50.79243893094106
 20
71.47229626112944
 30
0.0
 11
48.29243893094117
 21
71.47229626112942
 31
0.0
  0
LINE
  5
340
330
1F
100
AcDbEntity
  8
0
  6
Continuous
 62
     7
100
AcDbLine
 10
50.79243893094112
 20
69.17229626112943
 30
0.0
 11
50.04243893094112
 21
69.17229626112943
 31
0.0
  0
LINE
  5
341
330
1F
100
AcDbEntity
  8
0
  6
Continuous
 62
     7
100
AcDbLine
 10
47.89243893094108
 20
96.97229626112944
 30
0.0
 11
50.79243893094106
 21
96.97229626112944
 31
0.0
  0
LINE
  5
342
330
1F
100
AcDbEntity
  8
0
  6
Continuous
 62
     7
100
AcDbLine
 10
52.29243893094117
 20
71.47229626112942
 30
0.0
 11
50.79243893094106
 21
71.47229626112944
 31
0.0
  0
LINE
  5
343
330
1F
100
AcDbEntity
  8
0
  6
Continuous
 62
     7
100
AcDbLine
 10
52.29243893094117
 20
69.17229626112943
 30
0.0
 11
50.79243893094112
 21
69.17229626112943
 31
0.0
  0
LINE
  5
344
330
1F
100
AcDbEntity
  8
1
  6
DOT_CENTER
 62
     7
100
AcDbLine
 10
91.27109720267413
 20
82.4722962611293
 30
0.0
 11
91.64243926996363
 21
82.47229626112933
 31
0.0
  0
LINE
  5
345
330
1F
100
AcDbEntity
  8
1
  6
DOT_CENTER
 62
     7
100
AcDbLine
 10
90.09243926996362
 20
82.4722962611293
 30
0.0
 11
90.57109720267408
 21
82.4722962611293
 31
0.0
  0
LINE
  5
346
330
1F
100
AcDbEntity
  8
1
  6
DOT_CENTER
 62
     7
100
AcDbLine
 10
76.94243926996359
 20
96.97229626112933
 30
0.0
 11
76.94243926996364
 21
97.47229626112936
 31
0.0
  0
LINE
  5
347
330
1F
100
AcDbEntity
  8
1
  6
DOT_CENTER
 62
     7
100
AcDbLine
 10
82.29328439503337
 20
96.97229626112933
 30
0.0
 11
82.29328439503342
 21
97.47229626112936
 31
0.0
  0
LINE
  5
348
330
1F
100
AcDbEntity
  8
0
  6
Continuous
 62
     7
100
AcDbLine
 10
84.89328439503339
 20
96.97229626112933
 30
0.0
 11
84.89328439503339
 21
97.47229626112936
 31
0.0
  0
LINE
  5
349
330
1F
100
AcDbEntity
  8
0
  6
Continuous
 62
     7
100
AcDbLine
 10
82.29328439503342
 20
97.47229626112936
 30
0.0
 11
84.89328439503339
 21
97.47229626112936
 31
0.0
  0
LINE
  5
34A
330
1F
100
AcDbEntity
  8
0
  6
Continuous
 62
     7
100
AcDbLine
 10
79.69328439503334
 20
97.47229626112936
 30
0.0
 11
82.29328439503342
 21
97.47229626112936
 31
0.0
  0
LINE
  5
34B
330
1F
100
AcDbEntity
  8
0
  6
Continuous
 62
     7
100
AcDbLine
 10
79.69328439503334
 20
96.97229626112933
 30
0.0
 11
79.69328439503334
 21
97.47229626112936
 31
0.0
  0
LINE
  5
34C
330
1F
100
AcDbEntity
  8
0
  6
Continuous
 62
     7
100
AcDbLine
 10
69.09243926996373
 20
96.97229626112933
 30
0.0
 11
70.14243926996369
 21
96.97229626112933
 31
0.0
  0
LINE
  5
34D
330
1F
100
AcDbEntity
  8
0
  6
Continuous
 62
     7
100
AcDbLine
 10
75.09243926996368
 20
94.4722962611293
 30
0.0
 11
75.09243926996373
 21
82.17229626112932
 31
0.0
  0
LINE
  5
34E
330
1F
100
AcDbEntity
  8
0
  6
Continuous
 62
     7
100
AcDbLine
 10
78.09243926996368
 20
82.17229626112932
 30
0.0
 11
75.09243926996373
 21
82.17229626112932
 31
0.0
  0
LINE
  5
34F
330
1F
100
AcDbEntity
  8
0
  6
Continuous
 62
     7
100
AcDbLine
 10
77.9924392699636
 20
94.4722962611293
 30
0.0
 11
77.9924392699636
 21
85.4722962611293
 31
0.0
  0
LINE
  5
350
330
1F
100
AcDbEntity
  8
0
  6
Continuous
 62
     7
100
AcDbLine
 10
75.09243926996368
 20
94.4722962611293
 30
0.0
 11
75.34243926996362
 21
94.4722962611293
 31
0.0
  0
LINE
  5
351
330
1F
100
AcDbEntity
  8
0
  6
Continuous
 62
     7
100
AcDbLine
 10
74.34243926996356
 20
97.47229626112936
 30
0.0
 11
76.94243926996364
 21
97.47229626112936
 31
0.0
  0
LINE
  5
352
330
1F
100
AcDbEntity
  8
0
  6
Continuous
 62
     7
100
AcDbLine
 10
75.34243926996362
 20
94.4722962611293
 30
0.0
 11
75.34243926996356
 21
82.4722962611293
 31
0.0
  0
LINE
  5
353
330
1F
100
AcDbEntity
  8
0
  6
Continuous
 62
     7
100
AcDbLine
 10
77.99243926996371
 20
96.97229626112933
 30
0.0
 11
74.34243926996356
 21
96.97229626112933
 31
0.0
  0
LINE
  5
354
330
1F
100
AcDbEntity
  8
0
  6
Continuous
 62
     7
100
AcDbLine
 10
75.09243926996373
 20
82.17229626112932
 30
0.0
 11
75.09243926996368
 21
71.47229626112933
 31
0.0
  0
LINE
  5
355
330
1F
100
AcDbEntity
  8
0
  6
Continuous
 62
     7
100
AcDbLine
 10
78.09243926996368
 20
71.47229626112933
 30
0.0
 11
75.09243926996368
 21
71.47229626112933
 31
0.0
  0
LINE
  5
356
330
1F
100
AcDbEntity
  8
0
  6
Continuous
 62
     7
100
AcDbLine
 10
84.09243926996373
 20
71.47229626112933
 30
0.0
 11
84.09243926996373
 21
82.17229626112932
 31
0.0
  0
LINE
  5
357
330
1F
100
AcDbEntity
  8
0
  6
Continuous
 62
     7
100
AcDbLine
 10
75.34243926996356
 20
82.4722962611293
 30
0.0
 11
83.84243926996362
 21
82.4722962611293
 31
0.0
  0
LINE
  5
358
330
1F
100
AcDbEntity
  8
0
  6
Continuous
 62
     7
100
AcDbLine
 10
84.09243926996373
 20
82.17229626112932
 30
0.0
 11
81.09243926996368
 21
82.17229626112932
 31
0.0
  0
LINE
  5
359
330
1F
100
AcDbEntity
  8
0
  6
Continuous
 62
     7
100
AcDbLine
 10
90.57109720263617
 20
80.28523484197449
 30
0.0
 11
90.57109720267408
 21
80.27229626112931
 31
0.0
  0
LINE
  5
35A
330
1F
100
AcDbEntity
  8
0
  6
Continuous
 62
     7
100
AcDbLine
 10
90.57109720265396
 20
84.11338879154938
 30
0.0
 11
90.57109720267408
 21
83.84761420814634
 31
0.0
  0
LINE
  5
35B
330
1F
100
AcDbEntity
  8
0
  6
Continuous
 62
     7
100
AcDbLine
 10
90.57109720262548
 20
84.19982348486978
 30
0.0
 11
90.57109720265396
 21
84.11338879154938
 31
0.0
  0
LINE
  5
35C
330
1F
100
AcDbEntity
  8
0
  6
Continuous
 62
     7
100
AcDbLine
 10
90.09243926996362
 20
84.1936383284188
 30
0.0
 11
90.57109720267408
 21
84.67229626112929
 31
0.0
  0
LINE
  5
35D
330
1F
100
AcDbEntity
  8
0
  6
Continuous
 62
     7
100
AcDbLine
 10
90.09243926996362
 20
80.7509541938398
 30
0.0
 11
90.57109720267408
 21
80.27229626112931
 31
0.0
  0
LINE
  5
35E
330
1F
100
AcDbEntity
  8
0
  6
Continuous
 62
     7
100
AcDbLine
 10
90.57109720267408
 20
82.7222962611293
 30
0.0
 11
90.57109720267408
 21
82.2222962611293
 31
0.0
  0
LINE
  5
35F
330
1F
100
AcDbEntity
  8
0
  6
Continuous
 62
     7
100
AcDbLine
 10
90.57109720267408
 20
80.83120373070643
 30
0.0
 11
90.57109720262548
 21
80.74476903738882
 31
0.0
  0
LINE
  5
360
330
1F
100
AcDbEntity
  8
0
  6
Continuous
 62
     7
100
AcDbLine
 10
90.57109720267408
 20
81.09697831411229
 30
0.0
 11
90.57109720267408
 21
80.83120373070643
 31
0.0
  0
LINE
  5
361
330
1F
100
AcDbEntity
  8
0
  6
Continuous
 62
     7
100
AcDbLine
 10
90.57109720267408
 20
84.67229626112929
 30
0.0
 11
90.57109720263617
 21
84.65935768028412
 31
0.0
  0
LINE
  5
362
330
1F
100
AcDbEntity
  8
0
  6
Continuous
 62
     7
100
AcDbLine
 10
91.27109720267413
 20
80.24718498394647
 30
0.0
 11
91.27109720267413
 21
80.33334423916877
 31
0.0
  0
LINE
  5
363
330
1F
100
AcDbEntity
  8
0
  6
Continuous
 62
     7
100
AcDbLine
 10
91.27109720267413
 20
84.61124828308984
 30
0.0
 11
91.27109720267413
 21
84.69740753831216
 31
0.0
  0
LINE
  5
364
330
1F
100
AcDbEntity
  8
0
  6
Continuous
 62
     7
100
AcDbLine
 10
90.57109720267408
 20
82.2222962611293
 30
0.0
 11
91.27109720267413
 21
82.2222962611293
 31
0.0
  0
LINE
  5
365
330
1F
100
AcDbEntity
  8
0
  6
Continuous
 62
     7
100
AcDbLine
 10
92.23673043996871
 20
83.63902245008713
 30
0.0
 11
92.11129644847301
 21
83.63902245008713
 31
0.0
  0
LINE
  5
366
330
1F
100
AcDbEntity
  8
0
  6
Continuous
 62
     7
100
AcDbLine
 10
91.46405231964451
 20
80.22986175442814
 30
0.0
 11
91.46405231964451
 21
80.79554717937738
 31
0.0
  0
LINE
  5
367
330
1F
100
AcDbEntity
  8
0
  6
Continuous
 62
     7
100
AcDbLine
 10
91.64243926996369
 20
80.22986175442814
 30
0.0
 11
91.46405231964451
 21
80.22986175442814
 31
0.0
  0
LINE
  5
368
330
1F
100
AcDbEntity
  8
0
  6
Continuous
 62
     7
100
AcDbLine
 10
91.64243926996369
 20
80.79554717937738
 30
0.0
 11
91.64243926996369
 21
85.27229626112931
 31
0.0
  0
LINE
  5
369
330
1F
100
AcDbEntity
  8
0
  6
Continuous
 62
     7
100
AcDbLine
 10
92.23673043996871
 20
81.30557007217153
 30
0.0
 11
91.98860886329652
 21
81.30557007217156
 31
0.0
  0
LINE
  5
36A
330
1F
100
AcDbEntity
  8
0
  6
Continuous
 62
     7
100
AcDbLine
 10
91.64243926996369
 20
85.27229626112931
 30
0.0
 11
91.29243926996367
 21
85.27229626112931
 31
0.0
  0
LINE
  5
36B
330
1F
100
AcDbEntity
  8
0
  6
Continuous
 62
     7
100
AcDbLine
 10
91.27109720267413
 20
85.25095419383969
 30
0.0
 11
91.29243926996367
 21
85.27229626112931
 31
0.0
  0
LINE
  5
36C
330
1F
100
AcDbEntity
  8
0
  6
Continuous
 62
     7
100
AcDbLine
 10
91.29243926996367
 20
85.27229626112931
 30
0.0
 11
91.29243926996367
 21
79.67229626112929
 31
0.0
  0
LINE
  5
36D
330
1F
100
AcDbEntity
  8
0
  6
Continuous
 62
     7
100
AcDbLine
 10
91.27109720267413
 20
82.7222962611293
 30
0.0
 11
91.27109720267413
 21
84.34487099755832
 31
0.0
  0
LINE
  5
36E
330
1F
100
AcDbEntity
  8
0
  6
Continuous
 62
     7
100
AcDbLine
 10
91.27109720267413
 20
80.59972152470031
 30
0.0
 11
91.27109720267413
 21
82.2222962611293
 31
0.0
  0
LINE
  5
36F
330
1F
100
AcDbEntity
  8
0
  6
Continuous
 62
     7
100
AcDbLine
 10
91.27109720267413
 20
82.7222962611293
 30
0.0
 11
90.57109720267408
 21
82.7222962611293
 31
0.0
  0
LINE
  5
370
330
1F
100
AcDbEntity
  8
0
  6
Continuous
 62
     7
100
AcDbLine
 10
91.64243926996369
 20
80.79554717937738
 30
0.0
 11
91.46405231964451
 21
80.79554717937738
 31
0.0
  0
LINE
  5
371
330
1F
100
AcDbEntity
  8
0
  6
Continuous
 62
     7
100
AcDbLine
 10
91.64243926996369
 20
79.67229626112929
 30
0.0
 11
91.64243926996369
 21
80.22986175442814
 31
0.0
  0
LINE
  5
372
330
1F
100
AcDbEntity
  8
0
  6
Continuous
 62
     7
100
AcDbLine
 10
91.27109720267413
 20
79.69363832841891
 30
0.0
 11
91.29243926996367
 21
79.67229626112929
 31
0.0
  0
LINE
  5
373
330
1F
100
AcDbEntity
  8
0
  6
Continuous
 62
     7
100
AcDbLine
 10
91.27109720267413
 20
79.58209944237252
 30
0.0
 11
91.27109720267413
 21
80.24718498394647
 31
0.0
  0
LINE
  5
374
330
1F
100
AcDbEntity
  8
0
  6
Continuous
 62
     7
100
AcDbLine
 10
91.64243926996369
 20
79.67229626112929
 30
0.0
 11
91.29243926996367
 21
79.67229626112929
 31
0.0
  0
LINE
  5
375
330
1F
100
AcDbEntity
  8
0
  6
Continuous
 62
     7
100
AcDbLine
 10
91.27109720267413
 20
84.69740753831216
 30
0.0
 11
91.27109720267413
 21
85.36249307988611
 31
0.0
  0
LINE
  5
376
330
1F
100
AcDbEntity
  8
0
  6
Continuous
 62
     7
100
AcDbLine
 10
92.33466118239869
 20
83.2764312611293
 30
0.0
 11
92.1627024934204
 21
83.2764312611293
 31
0.0
  0
LINE
  5
377
330
1F
100
AcDbEntity
  8
0
  6
Continuous
 62
     7
100
AcDbLine
 10
92.33466118239869
 20
81.6681612611293
 30
0.0
 11
92.1627024934204
 21
81.6681612611293
 31
0.0
  0
LINE
  5
378
330
1F
100
AcDbEntity
  8
0
  6
Continuous
 62
     7
100
AcDbLine
 10
79.54243926996361
 20
96.97229626112933
 30
0.0
 11
79.69328439503334
 21
96.97229626112933
 31
0.0
  0
LINE
  5
379
330
1F
100
AcDbEntity
  8
0
  6
Continuous
 62
     7
100
AcDbLine
 10
81.19243926996359
 20
85.4722962611293
 30
0.0
 11
81.19243926996359
 21
94.4722962611293
 31
0.0
  0
LINE
  5
37A
330
1F
100
AcDbEntity
  8
0
  6
Continuous
 62
     7
100
AcDbLine
 10
81.09243926996368
 20
94.4722962611293
 30
0.0
 11
81.09243926996368
 21
85.57229626112932
 31
0.0
  0
LINE
  5
37B
330
1F
100
AcDbEntity
  8
0
  6
Continuous
 62
     7
100
AcDbLine
 10
81.09243926996368
 20
82.17229626112932
 30
0.0
 11
81.09243926996368
 21
71.47229626112933
 31
0.0
  0
LINE
  5
37C
330
1F
100
AcDbEntity
  8
0
  6
Continuous
 62
     7
100
AcDbLine
 10
79.69328439503334
 20
96.97229626112933
 30
0.0
 11
81.1924392699637
 21
96.97229626112933
 31
0.0
  0
LINE
  5
37D
330
1F
100
AcDbEntity
  8
0
  6
Continuous
 62
     7
100
AcDbLine
 10
81.1924392699637
 20
96.97229626112933
 30
0.0
 11
81.19243926996359
 21
94.4722962611293
 31
0.0
  0
LINE
  5
37E
330
1F
100
AcDbEntity
  8
0
  6
Continuous
 62
     7
100
AcDbLine
 10
81.19243926996359
 20
94.4722962611293
 30
0.0
 11
81.09243926996368
 21
94.4722962611293
 31
0.0
  0
LINE
  5
37F
330
1F
100
AcDbEntity
  8
0
  6
Continuous
 62
     7
100
AcDbLine
 10
81.09243926996368
 20
94.4722962611293
 30
0.0
 11
78.09243926996368
 21
94.4722962611293
 31
0.0
  0
LINE
  5
380
330
1F
100
AcDbEntity
  8
0
  6
Continuous
 62
     7
100
AcDbLine
 10
77.9924392699636
 20
85.4722962611293
 30
0.0
 11
81.19243926996359
 21
85.4722962611293
 31
0.0
  0
LINE
  5
381
330
1F
100
AcDbEntity
  8
0
  6
Continuous
 62
     7
100
AcDbLine
 10
77.9924392699636
 20
94.4722962611293
 30
0.0
 11
77.99243926996371
 21
96.97229626112933
 31
0.0
  0
LINE
  5
382
330
1F
100
AcDbEntity
  8
0
  6
Continuous
 62
     7
100
AcDbLine
 10
78.09243926996368
 20
85.57229626112932
 30
0.0
 11
81.09243926996368
 21
85.57229626112932
 31
0.0
  0
LINE
  5
383
330
1F
100
AcDbEntity
  8
0
  6
Continuous
 62
     7
100
AcDbLine
 10
78.09243926996368
 20
94.4722962611293
 30
0.0
 11
78.09243926996368
 21
85.57229626112932
 31
0.0
  0
LINE
  5
384
330
1F
100
AcDbEntity
  8
0
  6
Continuous
 62
     7
100
AcDbLine
 10
77.99243926996371
 20
96.97229626112933
 30
0.0
 11
79.54243926996361
 21
96.97229626112933
 31
0.0
  0
LINE
  5
385
330
1F
100
AcDbEntity
  8
0
  6
Continuous
 62
     7
100
AcDbLine
 10
78.09243926996368
 20
94.4722962611293
 30
0.0
 11
77.9924392699636
 21
94.4722962611293
 31
0.0
  0
LINE
  5
386
330
1F
100
AcDbEntity
  8
0
  6
Continuous
 62
     7
100
AcDbLine
 10
70.14243926996369
 20
97.47229626112936
 30
0.0
 11
72.74243926996371
 21
97.47229626112936
 31
0.0
  0
LINE
  5
387
330
1F
100
AcDbEntity
  8
0
  6
Continuous
 62
     7
100
AcDbLine
 10
69.84243926996373
 20
65.4722962611293
 30
0.0
 11
72.09243926996373
 21
65.4722962611293
 31
0.0
  0
LINE
  5
388
330
1F
100
AcDbEntity
  8
0
  6
Continuous
 62
     7
100
AcDbLine
 10
69.84243926996373
 20
65.4722962611293
 30
0.0
 11
69.84243926996373
 21
69.17229626112932
 31
0.0
  0
LINE
  5
389
330
1F
100
AcDbEntity
  8
0
  6
Continuous
 62
     7
100
AcDbLine
 10
70.14243926996369
 20
96.97229626112933
 30
0.0
 11
70.14243926996369
 21
97.47229626112936
 31
0.0
  0
LINE
  5
38A
330
1F
100
AcDbEntity
  8
0
  6
Continuous
 62
     7
100
AcDbLine
 10
70.14243926996369
 20
96.97229626112933
 30
0.0
 11
72.09243926996368
 21
96.97229626112933
 31
0.0
  0
LINE
  5
38B
330
1F
100
AcDbEntity
  8
0
  6
Continuous
 62
     7
100
AcDbLine
 10
75.09243926996368
 20
71.47229626112933
 30
0.0
 11
71.59243926996368
 21
71.4722962611293
 31
0.0
  0
LINE
  5
38C
330
1F
100
AcDbEntity
  8
0
  6
Continuous
 62
     7
100
AcDbLine
 10
71.59243926996368
 20
69.17229626112932
 30
0.0
 11
69.84243926996373
 21
69.17229626112932
 31
0.0
  0
LINE
  5
38D
330
1F
100
AcDbEntity
  8
0
  6
Continuous
 62
     7
100
AcDbLine
 10
75.09243926996373
 20
69.17229626112932
 30
0.0
 11
71.59243926996368
 21
69.17229626112932
 31
0.0
  0
LINE
  5
38E
330
1F
100
AcDbEntity
  8
0
  6
Continuous
 62
     7
100
AcDbLine
 10
69.09243926996373
 20
96.97229626112933
 30
0.0
 11
69.09243926996373
 21
71.4722962611293
 31
0.0
  0
LINE
  5
38F
330
1F
100
AcDbEntity
  8
0
  6
Continuous
 62
     7
100
AcDbLine
 10
71.59243926996368
 20
71.4722962611293
 30
0.0
 11
69.09243926996373
 21
71.4722962611293
 31
0.0
  0
LINE
  5
390
330
1F
100
AcDbEntity
  8
0
  6
Continuous
 62
     7
100
AcDbLine
 10
76.94243926996364
 20
97.47229626112936
 30
0.0
 11
79.54243926996361
 21
97.47229626112936
 31
0.0
  0
LINE
  5
391
330
1F
100
AcDbEntity
  8
0
  6
Continuous
 62
     7
100
AcDbLine
 10
78.09243926996368
 20
82.17229626112932
 30
0.0
 11
78.09243926996368
 21
71.47229626112933
 31
0.0
  0
LINE
  5
392
330
1F
100
AcDbEntity
  8
0
  6
Continuous
 62
     7
100
AcDbLine
 10
79.54243926996361
 20
96.97229626112933
 30
0.0
 11
79.54243926996361
 21
97.47229626112936
 31
0.0
  0
LINE
  5
393
330
1F
100
AcDbEntity
  8
0
  6
Continuous
 62
     7
100
AcDbLine
 10
81.09243926996373
 20
69.17229626112932
 30
0.0
 11
78.09243926996373
 21
69.17229626112932
 31
0.0
  0
LINE
  5
394
330
1F
100
AcDbEntity
  8
0
  6
Continuous
 62
     7
100
AcDbLine
 10
78.09243926996373
 20
69.17229626112932
 30
0.0
 11
75.09243926996373
 21
69.17229626112932
 31
0.0
  0
LINE
  5
395
330
1F
100
AcDbEntity
  8
0
  6
Continuous
 62
     7
100
AcDbLine
 10
84.09243926996373
 20
65.4722962611293
 30
0.0
 11
87.09243926996373
 21
65.4722962611293
 31
0.0
  0
LINE
  5
396
330
1F
100
AcDbEntity
  8
0
  6
Continuous
 62
     7
100
AcDbLine
 10
75.09243926996373
 20
65.4722962611293
 30
0.0
 11
78.09243926996368
 21
65.4722962611293
 31
0.0
  0
LINE
  5
397
330
1F
100
AcDbEntity
  8
0
  6
Continuous
 62
     7
100
AcDbLine
 10
78.09243926996368
 20
65.4722962611293
 30
0.0
 11
81.09243926996368
 21
65.4722962611293
 31
0.0
  0
LINE
  5
398
330
1F
100
AcDbEntity
  8
0
  6
Continuous
 62
     7
100
AcDbLine
 10
81.09243926996368
 20
65.4722962611293
 30
0.0
 11
84.09243926996373
 21
65.4722962611293
 31
0.0
  0
LINE
  5
399
330
1F
100
AcDbEntity
  8
0
  6
Continuous
 62
     7
100
AcDbLine
 10
81.09243926996373
 20
69.17229626112932
 30
0.0
 11
81.09243926996368
 21
65.4722962611293
 31
0.0
  0
LINE
  5
39A
330
1F
100
AcDbEntity
  8
0
  6
Continuous
 62
     7
100
AcDbLine
 10
84.09243926996373
 20
69.17229626112932
 30
0.0
 11
81.09243926996373
 21
69.17229626112932
 31
0.0
  0
LINE
  5
39B
330
1F
100
AcDbEntity
  8
0
  6
Continuous
 62
     7
100
AcDbLine
 10
78.09243926996368
 20
65.4722962611293
 30
0.0
 11
78.09243926996373
 21
69.17229626112932
 31
0.0
  0
LINE
  5
39C
330
1F
100
AcDbEntity
  8
0
  6
Continuous
 62
     7
100
AcDbLine
 10
75.09243926996373
 20
65.4722962611293
 30
0.0
 11
75.09243926996373
 21
69.17229626112932
 31
0.0
  0
LINE
  5
39D
330
1F
100
AcDbEntity
  8
0
  6
Continuous
 62
     7
100
AcDbLine
 10
81.09243926996368
 20
71.47229626112933
 30
0.0
 11
78.09243926996368
 21
71.47229626112933
 31
0.0
  0
LINE
  5
39E
330
1F
100
AcDbEntity
  8
0
  6
Continuous
 62
     7
100
AcDbLine
 10
84.09243926996373
 20
71.47229626112933
 30
0.0
 11
81.09243926996368
 21
71.47229626112933
 31
0.0
  0
LINE
  5
39F
330
1F
100
AcDbEntity
  8
0
  6
Continuous
 62
     7
100
AcDbLine
 10
87.59243926996373
 20
71.4722962611293
 30
0.0
 11
84.09243926996373
 21
71.47229626112933
 31
0.0
  0
LINE
  5
3A0
330
1F
100
AcDbEntity
  8
0
  6
Continuous
 62
     7
100
AcDbLine
 10
69.84243926996373
 20
69.17229626112932
 30
0.0
 11
67.59243926996368
 21
69.17229626112932
 31
0.0
  0
LINE
  5
3A1
330
1F
100
AcDbEntity
  8
0
  6
Continuous
 62
     7
100
AcDbLine
 10
69.09243926996373
 20
71.4722962611293
 30
0.0
 11
67.59243926996368
 21
71.4722962611293
 31
0.0
  0
LINE
  5
3A2
330
1F
100
AcDbEntity
  8
0
  6
Continuous
 62
     7
100
AcDbLine
 10
67.59243926996368
 20
71.4722962611293
 30
0.0
 11
67.59243926996368
 21
69.17229626112932
 31
0.0
  0
LINE
  5
3A3
330
1F
100
AcDbEntity
  8
0
  6
Continuous
 62
     7
100
AcDbLine
 10
90.09243926996368
 20
69.17229626112932
 30
0.0
 11
90.09243926996368
 21
65.4722962611293
 31
0.0
  0
LINE
  5
3A4
330
1F
100
AcDbEntity
  8
0
  6
Continuous
 62
     7
100
AcDbLine
 10
89.34243926996368
 20
65.4722962611293
 30
0.0
 11
87.09243926996373
 21
65.4722962611293
 31
0.0
  0
LINE
  5
3A5
330
1F
100
AcDbEntity
  8
0
  6
Continuous
 62
     7
100
AcDbLine
 10
90.09243926996368
 20
65.4722962611293
 30
0.0
 11
89.34243926996368
 21
65.4722962611293
 31
0.0
  0
LINE
  5
3A6
330
1F
100
AcDbEntity
  8
0
  6
Continuous
 62
     7
100
AcDbLine
 10
89.34243926996373
 20
69.17229626112932
 30
0.0
 11
89.34243926996368
 21
65.4722962611293
 31
0.0
  0
LINE
  5
3A7
330
1F
100
AcDbEntity
  8
0
  6
Continuous
 62
     7
100
AcDbLine
 10
90.09243926996368
 20
69.17229626112932
 30
0.0
 11
89.34243926996373
 21
69.17229626112932
 31
0.0
  0
LINE
  5
3A8
330
1F
100
AcDbEntity
  8
0
  6
Continuous
 62
     7
100
AcDbLine
 10
90.09243926996362
 20
71.47229626112933
 30
0.0
 11
87.59243926996373
 21
71.4722962611293
 31
0.0
  0
LINE
  5
3A9
330
1F
100
AcDbEntity
  8
0
  6
Continuous
 62
     7
100
AcDbLine
 10
91.59243926996373
 20
71.4722962611293
 30
0.0
 11
91.59243926996373
 21
69.17229626112932
 31
0.0
  0
LINE
  5
3AA
330
1F
100
AcDbEntity
  8
0
  6
Continuous
 62
     7
100
AcDbLine
 10
91.59243926996373
 20
71.4722962611293
 30
0.0
 11
90.09243926996362
 21
71.47229626112933
 31
0.0
  0
LINE
  5
3AB
330
1F
100
AcDbEntity
  8
0
  6
Continuous
 62
     7
100
AcDbLine
 10
91.59243926996373
 20
69.17229626112932
 30
0.0
 11
90.09243926996368
 21
69.17229626112932
 31
0.0
  0
LINE
  5
3AC
330
1F
100
AcDbEntity
  8
0
  6
Continuous
 62
     7
100
AcDbLine
 10
90.09243926996362
 20
96.97229626112933
 30
0.0
 11
90.09243926996362
 21
71.47229626112933
 31
0.0
  0
LINE
  5
3AD
330
1F
100
AcDbEntity
  8
0
  6
Continuous
 62
     7
100
AcDbLine
 10
84.09243926996373
 20
82.17229626112932
 30
0.0
 11
84.09243926996368
 21
94.4722962611293
 31
0.0
  0
LINE
  5
3AE
330
1F
100
AcDbEntity
  8
0
  6
Continuous
 62
     7
100
AcDbLine
 10
84.09243926996373
 20
69.17229626112932
 30
0.0
 11
84.09243926996373
 21
65.4722962611293
 31
0.0
  0
LINE
  5
3AF
330
1F
100
AcDbEntity
  8
0
  6
Continuous
 62
     7
100
AcDbLine
 10
83.84243926996362
 20
94.4722962611293
 30
0.0
 11
84.09243926996368
 21
94.4722962611293
 31
0.0
  0
LINE
  5
3B0
330
1F
100
AcDbEntity
  8
0
  6
Continuous
 62
     7
100
AcDbLine
 10
83.84243926996362
 20
82.4722962611293
 30
0.0
 11
83.84243926996362
 21
94.4722962611293
 31
0.0
  0
LINE
  5
3B1
330
1F
100
AcDbEntity
  8
0
  6
Continuous
 62
     7
100
AcDbLine
 10
81.1924392699637
 20
96.97229626112933
 30
0.0
 11
84.89328439503339
 21
96.97229626112933
 31
0.0
  0
LINE
  5
3B2
330
1F
100
AcDbEntity
  8
0
  6
Continuous
 62
     7
100
AcDbLine
 10
87.09243926996373
 20
96.97229626112933
 30
0.0
 11
84.89328439503339
 21
96.97229626112933
 31
0.0
  0
LINE
  5
3B3
330
1F
100
AcDbEntity
  8
0
  6
Continuous
 62
     7
100
AcDbLine
 10
87.59243926996373
 20
69.17229626112932
 30
0.0
 11
84.09243926996373
 21
69.17229626112932
 31
0.0
  0
LINE
  5
3B4
330
1F
100
AcDbEntity
  8
0
  6
Continuous
 62
     7
100
AcDbLine
 10
87.09243926996373
 20
96.97229626112933
 30
0.0
 11
90.09243926996362
 21
96.97229626112933
 31
0.0
  0
LINE
  5
3B5
330
1F
100
AcDbEntity
  8
0
  6
Continuous
 62
     7
100
AcDbLine
 10
89.34243926996373
 20
69.17229626112932
 30
0.0
 11
87.59243926996373
 21
69.17229626112932
 31
0.0
  0
LINE
  5
3B6
330
1F
100
AcDbEntity
  8
0
  6
Continuous
 62
     7
100
AcDbLine
 10
72.09243926996373
 20
65.4722962611293
 30
0.0
 11
75.09243926996373
 21
65.4722962611293
 31
0.0
  0
LINE
  5
3B7
330
1F
100
AcDbEntity
  8
0
  6
Continuous
 62
     7
100
AcDbLine
 10
72.74243926996371
 20
97.47229626112936
 30
0.0
 11
74.34243926996356
 21
97.47229626112936
 31
0.0
  0
LINE
  5
3B8
330
1F
100
AcDbEntity
  8
0
  6
Continuous
 62
     7
100
AcDbLine
 10
74.34243926996356
 20
96.97229626112933
 30
0.0
 11
74.34243926996356
 21
97.47229626112936
 31
0.0
  0
LINE
  5
3B9
330
1F
100
AcDbEntity
  8
0
  6
Continuous
 62
     7
100
AcDbLine
 10
74.34243926996356
 20
96.97229626112933
 30
0.0
 11
72.09243926996368
 21
96.97229626112933
 31
0.0
  0
LINE
  5
3BA
330
1F
100
AcDbEntity
  8
1
  6
Continuous
 62
     7
100
AcDbLine
 10
51.59286005975274
 20
4.20051792171099
 30
0.0
 11
52.58830080438587
 21
4.20051792171099
 31
0.0
  0
LINE
  5
3BB
330
1F
100
AcDbEntity
  8
1
  6
Continuous
 62
     7
100
AcDbLine
 10
51.94414711363685
 20
3.7614091043558
 30
0.0
 11
53.23752217566481
 21
3.7614091043558
 31
0.0
  0
LINE
  5
3BC
330
1F
100
AcDbEntity
  8
1
  6
Continuous
 62
     7
100
AcDbLine
 10
52.29543416752101
 20
3.32230028700066
 30
0.0
 11
52.8862351217807
 21
3.32230028700066
 31
0.0
  0
LINE
  5
3BD
330
1F
100
AcDbEntity
  8
1
  6
Continuous
 62
     7
100
AcDbLine
 10
52.58830080438587
 20
5.13608019125027
 30
0.0
 11
52.58830080438587
 21
4.20051792171099
 31
0.0
  0
LINE
  5
3BE
330
1F
100
AcDbEntity
  8
1
  6
Continuous
 62
     7
100
AcDbLine
 10
52.58830080438587
 20
4.20051792171099
 30
0.0
 11
53.58880922954897
 21
4.20051792171099
 31
0.0
  0
ARC
  5
3BF
102
{ACAD_REACTORS
330
489
102
}
330
1F
100
AcDbEntity
  8
1
  6
Continuous
 62
     7
100
AcDbCircle
 10
95.1373001172757
 20
7.86560865601728
 30
0.0
 40
0.1324831062376427
100
AcDbArc
 50
30.00000000001921
 51
180.0
  0
ARC
  5
3C0
102
{ACAD_REACTORS
330
489
102
}
330
1F
100
AcDbEntity
  8
1
  6
Continuous
 62
     7
100
AcDbCircle
 10
95.1714836777047
 20
5.42379253631645
 30
0.0
 40
0.166666666666643
100
AcDbArc
 50
180.0
 51
0.0
  0
ARC
  5
3C1
102
{ACAD_REACTORS
330
489
102
}
330
1F
100
AcDbEntity
  8
1
  6
Continuous
 62
     7
100
AcDbCircle
 10
96.5048170110381
 20
4.6541345353009
 30
0.0
 40
0.1666666666666998
100
AcDbArc
 50
180.0
 51
0.0
  0
ARC
  5
3C2
102
{ACAD_REACTORS
330
489
102
}
330
1F
100
AcDbEntity
  8
1
  6
Continuous
 62
     7
100
AcDbCircle
 10
96.53900057146706
 20
7.86560865601728
 30
0.0
 40
0.1324831062376433
100
AcDbArc
 50
0.0
 51
149.9999999999716
  0
ARC
  5
3C3
102
{ACAD_REACTORS
330
48A
102
}
330
1F
100
AcDbEntity
  8
1
  6
Continuous
 62
     7
100
AcDbCircle
 10
94.50481701103806
 20
7.46125008008369
 30
0.0
 40
0.166666666666643
100
AcDbArc
 50
0.0
 51
180.0
  0
ARC
  5
3C4
102
{ACAD_REACTORS
330
48A
102
}
330
1F
100
AcDbEntity
  8
1
  6
Continuous
 62
     7
100
AcDbCircle
 10
95.6714836777047
 20
4.36567299683935
 30
0.0
 40
0.1666666666666783
100
AcDbArc
 50
240.0183606311536
 51
60.01836063113668
  0
ARC
  5
3C5
102
{ACAD_REACTORS
330
48B
102
}
330
1F
100
AcDbEntity
  8
1
  6
Continuous
 62
     7
100
AcDbCircle
 10
93.8381503443714
 20
7.07663469546833
 30
0.0
 40
0.1666666666666572
100
AcDbArc
 50
0.0
 51
180.0
  0
ARC
  5
3C6
102
{ACAD_REACTORS
330
48B
102
}
330
1F
100
AcDbEntity
  8
1
  6
Continuous
 62
     7
100
AcDbCircle
 10
93.8381503443714
 20
5.42336530453161
 30
0.0
 40
0.1666666666666998
100
AcDbArc
 50
180.0
 51
0.0
  0
ARC
  5
3C7
102
{ACAD_REACTORS
330
48C
102
}
330
1F
100
AcDbEntity
  8
1
  6
Continuous
 62
     7
100
AcDbCircle
 10
97.8381503443714
 20
7.07663469546833
 30
0.0
 40
0.1666666666666806
100
AcDbArc
 50
240.018360631154
 51
60.01836063115638
  0
ARC
  5
3C8
102
{ACAD_REACTORS
330
48C
102
}
330
1F
100
AcDbEntity
  8
1
  6
Continuous
 62
     7
100
AcDbCircle
 10
97.8381503443714
 20
6.25
 30
0.0
 40
0.1666666666666847
100
AcDbArc
 50
270.0
 51
90.0
  0
ARC
  5
3C9
102
{ACAD_REACTORS
330
48C
102
}
330
1F
100
AcDbEntity
  8
1
  6
Continuous
 62
     7
100
AcDbCircle
 10
97.8381503443714
 20
5.42336530453161
 30
0.0
 40
0.1666666666666586
100
AcDbArc
 50
299.9816393688334
 51
119.9816393688365
  0
ARC
  5
3CA
330
1F
100
AcDbEntity
  8
0
  6
Continuous
 62
     7
100
AcDbCircle
 10
32.29243893094106
 20
31.97229587613962
 30
0.0
 40
4.0
100
AcDbArc
 50
180.0000000000002
 51
270.0
  0
ARC
  5
3CB
330
1F
100
AcDbEntity
  8
0
  6
Continuous
 62
     7
100
AcDbCircle
 10
32.792438930941
 20
32.47229587613965
 30
0.0
 40
3.000000000000004
100
AcDbArc
 50
179.9999999999993
 51
270.0000000000021
  0
ARC
  5
3CC
330
1F
100
AcDbEntity
  8
0
  6
Continuous
 62
     7
100
AcDbCircle
 10
47.79243893094106
 20
47.47229587613975
 30
0.0
 40
2.999999999999943
100
AcDbArc
 50
0.00000000000109
 51
90.0000000000011
  0
ARC
  5
3CD
330
1F
100
AcDbEntity
  8
0
  6
Continuous
 62
     7
100
AcDbCircle
 10
40.29243893094106
 20
32.77203813733252
 30
0.0
 40
5.599999999999997
100
AcDbArc
 50
240.0000000000006
 51
261.7440417741739
  0
ARC
  5
3CE
330
1F
100
AcDbEntity
  8
0
  6
Continuous
 62
     7
100
AcDbCircle
 10
39.21243893094108
 20
34.24740806779209
 30
0.0
 40
0.0899999999999837
100
AcDbArc
 50
119.9816393688414
 51
299.9816393687971
  0
ARC
  5
3CF
330
1F
100
AcDbEntity
  8
0
  6
Continuous
 62
     7
100
AcDbCircle
 10
39.57243893094109
 20
34.45510037548438
 30
0.0
 40
0.0899999999999821
100
AcDbArc
 50
0.0
 51
119.9816393688481
  0
ARC
  5
3D0
330
1F
100
AcDbEntity
  8
0
  6
Continuous
 62
     7
100
AcDbCircle
 10
39.9324389309411
 20
34.66279268317669
 30
0.0
 40
0.089999999999975
100
AcDbArc
 50
0.0
 51
180.0
  0
ARC
  5
3D1
330
1F
100
AcDbEntity
  8
0
  6
Continuous
 62
     7
100
AcDbCircle
 10
38.04248891705994
 20
33.80102533223916
 30
0.0
 40
0.044999999999987
100
AcDbArc
 50
119.9816393688397
 51
240.0183606311648
  0
ARC
  5
3D2
330
1F
100
AcDbEntity
  8
0
  6
Continuous
 62
     7
100
AcDbCircle
 10
39.57243893094109
 20
33.14695028899398
 30
0.0
 40
0.0900000000000021
100
AcDbArc
 50
240.0183606311654
 51
0.0
  0
ARC
  5
3D3
330
1F
100
AcDbEntity
  8
0
  6
Continuous
 62
     7
100
AcDbCircle
 10
39.21243893094108
 20
33.35464259668623
 30
0.0
 40
0.0900000000000071
100
AcDbArc
 50
60.01836063121426
 51
240.0183606311519
  0
ARC
  5
3D4
330
1F
100
AcDbEntity
  8
0
  6
Continuous
 62
     7
100
AcDbCircle
 10
39.91397980830944
 20
32.92859665798983
 30
0.0
 40
0.0715408773683137
100
AcDbArc
 50
180.0
 51
330.0000000000305
  0
ARC
  5
3D5
330
1F
100
AcDbEntity
  8
0
  6
Continuous
 62
     7
100
AcDbCircle
 10
40.38243893094104
 20
34.81856191394591
 30
0.0
 40
0.0900000000000481
100
AcDbArc
 50
60.01836063115098
 51
240.0183606311609
  0
ARC
  5
3D6
330
1F
100
AcDbEntity
  8
0
  6
Continuous
 62
     7
100
AcDbCircle
 10
40.6708980535728
 20
32.92859665798984
 30
0.0
 40
0.0715408773683095
100
AcDbArc
 50
210.0000000000249
 51
0.0
  0
ARC
  5
3D7
330
1F
100
AcDbEntity
  8
0
  6
Continuous
 62
     7
100
AcDbCircle
 10
41.37243893094116
 20
33.35464259668626
 30
0.0
 40
0.0900000000000887
100
AcDbArc
 50
180.0
 51
0.0
  0
ARC
  5
3D8
330
1F
100
AcDbEntity
  8
0
  6
Continuous
 62
     7
100
AcDbCircle
 10
41.01243893094114
 20
33.14695028899399
 30
0.0
 40
0.0899999999999679
100
AcDbArc
 50
180.0
 51
0.0
  0
ARC
  5
3D9
330
1F
100
AcDbEntity
  8
0
  6
Continuous
 62
     7
100
AcDbCircle
 10
40.29243893094112
 20
33.71102533223919
 30
0.0
 40
0.0449999999999837
100
AcDbArc
 50
30.00000000003416
 51
149.9999999999613
  0
ARC
  5
3DA
330
1F
100
AcDbEntity
  8
0
  6
Continuous
 62
     7
100
AcDbCircle
 10
40.65243893094107
 20
34.24717736262826
 30
0.0
 40
0.090000000000046
100
AcDbArc
 50
0.0
 51
180.0
  0
ARC
  5
3DB
330
1F
100
AcDbEntity
  8
0
  6
Continuous
 62
     7
100
AcDbCircle
 10
41.37243893094116
 20
34.24740806779211
 30
0.0
 40
0.0899999999998613
100
AcDbArc
 50
0.0
 51
180.0
  0
ARC
  5
3DC
330
1F
100
AcDbEntity
  8
0
  6
Continuous
 62
     7
100
AcDbCircle
 10
39.21243893094108
 20
33.80102533223916
 30
0.0
 40
0.0900000000000176
100
AcDbArc
 50
90.0
 51
270.0
  0
ARC
  5
3DD
330
1F
100
AcDbEntity
  8
0
  6
Continuous
 62
     7
100
AcDbCircle
 10
40.92243893094111
 20
34.40311962227038
 30
0.0
 40
0.1800000000000068
100
AcDbArc
 50
0.0
 51
60.01836063116114
  0
ARC
  5
3DE
330
1F
100
AcDbEntity
  8
0
  6
Continuous
 62
     7
100
AcDbCircle
 10
38.04248891705994
 20
33.80102533223916
 30
0.0
 40
0.1949999999999708
100
AcDbArc
 50
119.981639368848
 51
240.0183606311531
  0
ARC
  5
3DF
330
1F
100
AcDbEntity
  8
0
  6
Continuous
 62
     7
100
AcDbCircle
 10
42.54238894482235
 20
33.80102533223919
 30
0.0
 40
0.195000000000015
100
AcDbArc
 50
299.9816393688621
 51
60.01836063113787
  0
ARC
  5
3E0
330
1F
100
AcDbEntity
  8
0
  6
Continuous
 62
     7
100
AcDbCircle
 10
48.29243893094106
 20
47.97229587613975
 30
0.0
 40
4.0
100
AcDbArc
 50
0.00000000000041
 51
90.0
  0
ARC
  5
3E1
330
1F
100
AcDbEntity
  8
0
  6
Continuous
 62
     7
100
AcDbCircle
 10
48.29243893094117
 20
31.97229587613971
 30
0.0
 40
3.999999999999982
100
AcDbArc
 50
270.0
 51
0.00000000000056
  0
ARC
  5
3E2
330
1F
100
AcDbEntity
  8
0
  6
Continuous
 62
     7
100
AcDbCircle
 10
32.29243893094106
 20
47.97229587613967
 30
0.0
 40
3.999999999999979
100
AcDbArc
 50
90.00000000000082
 51
180.0
  0
ARC
  5
3E3
330
1F
100
AcDbEntity
  8
0
  6
Continuous
 62
     7
100
AcDbCircle
 10
32.792438930941
 20
47.47229587613965
 30
0.0
 40
3.00000000000005
100
AcDbArc
 50
90.0
 51
179.9999999999993
  0
ARC
  5
3E4
330
1F
100
AcDbEntity
  8
0
  6
Continuous
 62
     7
100
AcDbCircle
 10
42.54238894482235
 20
33.80102533223919
 30
0.0
 40
0.0450000000000118
100
AcDbArc
 50
299.9816393688945
 51
60.01836063110545
  0
ARC
  5
3E5
330
1F
100
AcDbEntity
  8
0
  6
Continuous
 62
     7
100
AcDbCircle
 10
40.29243893094106
 20
32.77203813733252
 30
0.0
 40
5.60000000000001
100
AcDbArc
 50
278.2559582258278
 51
300.0000000000007
  0
ARC
  5
3E6
330
1F
100
AcDbEntity
  8
0
  6
Continuous
 62
     7
100
AcDbCircle
 10
47.79243893094112
 20
32.47229587613975
 30
0.0
 40
3.000000000000004
100
AcDbArc
 50
270.0000000000009
 51
0.00000000000109
  0
ARC
  5
3E7
330
1F
100
AcDbEntity
  8
0
  6
Continuous
 62
     7
100
AcDbCircle
 10
32.29243893094106
 20
131.6722966449699
 30
0.0
 40
4.0
100
AcDbArc
 50
89.99999999999919
 51
180.0
  0
ARC
  5
3E8
330
1F
100
AcDbEntity
  8
0
  6
Continuous
 62
     7
100
AcDbCircle
 10
47.29243893094106
 20
116.6722966449698
 30
0.0
 40
1.5
100
AcDbArc
 50
270.0
 51
359.9999999999962
  0
ARC
  5
3E9
330
1F
100
AcDbEntity
  8
0
  6
Continuous
 62
     7
100
AcDbCircle
 10
32.29243893094106
 20
115.6722966449699
 30
0.0
 40
4.0
100
AcDbArc
 50
180.0
 51
270.0
  0
ARC
  5
3EA
330
1F
100
AcDbEntity
  8
0
  6
Continuous
 62
     7
100
AcDbCircle
 10
32.79243893094106
 20
116.1722966449699
 30
0.0
 40
2.25
100
AcDbArc
 50
180.0
 51
269.9999999999986
  0
ARC
  5
3EB
330
1F
100
AcDbEntity
  8
0
  6
Continuous
 62
     7
100
AcDbCircle
 10
33.29243893094106
 20
116.6722966449699
 30
0.0
 40
1.5
100
AcDbArc
 50
180.0
 51
269.9999999999978
  0
ARC
  5
3EC
330
1F
100
AcDbEntity
  8
0
  6
Continuous
 62
     7
100
AcDbCircle
 10
36.34243893094113
 20
125.1722966449699
 30
0.0
 40
0.5
100
AcDbArc
 50
270.0
 51
0.0
  0
ARC
  5
3ED
330
1F
100
AcDbEntity
  8
0
  6
Continuous
 62
     7
100
AcDbCircle
 10
32.79243893094112
 20
131.1722966449699
 30
0.0
 40
2.25
100
AcDbArc
 50
89.99999999999874
 51
180.0
  0
ARC
  5
3EE
330
1F
100
AcDbEntity
  8
0
  6
Continuous
 62
     7
100
AcDbCircle
 10
33.29243893094112
 20
130.6722966449699
 30
0.0
 40
1.5
100
AcDbArc
 50
90.0
 51
180.0
  0
ARC
  5
3EF
330
1F
100
AcDbEntity
  8
0
  6
Continuous
 62
     7
100
AcDbCircle
 10
38.04243893094112
 20
123.1722966449698
 30
0.0
 40
0.5
100
AcDbArc
 50
270.0
 51
0.0
  0
ARC
  5
3F0
330
1F
100
AcDbEntity
  8
0
  6
Continuous
 62
     7
100
AcDbCircle
 10
42.54243893094112
 20
123.1722966449698
 30
0.0
 40
0.5
100
AcDbArc
 50
180.0
 51
270.0
  0
ARC
  5
3F1
330
1F
100
AcDbEntity
  8
0
  6
Continuous
 62
     7
100
AcDbCircle
 10
44.24243893094111
 20
125.1722966449698
 30
0.0
 40
0.5
100
AcDbArc
 50
180.0
 51
270.0
  0
ARC
  5
3F2
330
1F
100
AcDbEntity
  8
0
  6
Continuous
 62
     7
100
AcDbCircle
 10
48.29243893094106
 20
115.6722966449698
 30
0.0
 40
4.0
100
AcDbArc
 50
270.0
 51
359.9999999999986
  0
ARC
  5
3F3
330
1F
100
AcDbEntity
  8
0
  6
Continuous
 62
     7
100
AcDbCircle
 10
47.79243893094106
 20
116.1722966449698
 30
0.0
 40
2.25
100
AcDbArc
 50
270.0
 51
359.9999999999974
  0
ARC
  5
3F4
330
1F
100
AcDbEntity
  8
0
  6
Continuous
 62
     7
100
AcDbCircle
 10
48.29243893094117
 20
131.6722966449698
 30
0.0
 40
4.0
100
AcDbArc
 50
0.0
 51
90.0
  0
ARC
  5
3F5
330
1F
100
AcDbEntity
  8
0
  6
Continuous
 62
     7
100
AcDbCircle
 10
47.79243893094112
 20
131.1722966449698
 30
0.0
 40
2.25
100
AcDbArc
 50
0.0
 51
89.99999999999874
  0
ARC
  5
3F6
330
1F
100
AcDbEntity
  8
0
  6
Continuous
 62
     7
100
AcDbCircle
 10
47.29243893094112
 20
130.6722966449698
 30
0.0
 40
1.5
100
AcDbArc
 50
0.0
 51
90.0
  0
ARC
  5
3F7
330
1F
100
AcDbEntity
  8
0
  6
Continuous
 62
     7
100
AcDbCircle
 10
40.29243893094112
 20
130.872554383777
 30
0.0
 40
5.600000000000029
100
AcDbArc
 50
98.2559582258266
 51
119.9999999999993
  0
ARC
  5
3F8
330
1F
100
AcDbEntity
  8
0
  6
Continuous
 62
     7
100
AcDbCircle
 10
40.29243893094112
 20
130.872554383777
 30
0.0
 40
5.600000000000056
100
AcDbArc
 50
60.0000000000002
 51
81.74404177417281
  0
ARC
  5
3F9
330
1F
100
AcDbEntity
  8
0
  6
Continuous
 62
     7
100
AcDbCircle
 10
40.29243893094112
 20
82.47229626112942
 30
0.0
 40
2.800000000000014
100
AcDbArc
 50
53.21321070173772
 51
216.7867892982626
  0
ARC
  5
3FA
330
1F
100
AcDbEntity
  8
0
  6
Continuous
 62
     7
100
AcDbCircle
 10
40.29243893094112
 20
82.47229626112942
 30
0.0
 40
2.899999999999971
100
AcDbArc
 50
139.78066310685
 51
175.0545702821166
  0
ARC
  5
3FB
330
1F
100
AcDbEntity
  8
0
  6
Continuous
 62
     7
100
AcDbCircle
 10
40.29243893094112
 20
82.47229626112942
 30
0.0
 40
2.899999999999976
100
AcDbArc
 50
184.9454297178834
 51
220.2193368931495
  0
ARC
  5
3FC
330
1F
100
AcDbEntity
  8
0
  6
Continuous
 62
     7
100
AcDbCircle
 10
40.29243893094112
 20
82.47229626112942
 30
0.0
 40
2.900000000000033
100
AcDbArc
 50
4.94542971788327
 51
39.88976266132924
  0
ARC
  5
3FD
330
1F
100
AcDbEntity
  8
0
  6
Continuous
 62
     7
100
AcDbCircle
 10
40.29243893094112
 20
82.47229626112942
 30
0.0
 40
2.800000000000042
100
AcDbArc
 50
36.78678929826112
 51
53.21321070173772
  0
ARC
  5
3FE
330
1F
100
AcDbEntity
  8
0
  6
Continuous
 62
     7
100
AcDbCircle
 10
40.29243893094112
 20
82.47229626112942
 30
0.0
 40
2.900000000000019
100
AcDbArc
 50
320.1102373386707
 51
355.0545702821167
  0
ARC
  5
3FF
330
1F
100
AcDbEntity
  8
0
  6
Continuous
 62
     7
100
AcDbCircle
 10
40.29243893094112
 20
82.47229626112942
 30
0.0
 40
2.800000000000002
100
AcDbArc
 50
233.213210701739
 51
36.78678929826112
  0
ARC
  5
400
330
1F
100
AcDbEntity
  8
0
  6
Continuous
 62
     7
100
AcDbCircle
 10
40.29243893094112
 20
82.47229626112942
 30
0.0
 40
2.900000000000028
100
AcDbArc
 50
49.7806631068502
 51
84.821484769377
  0
ARC
  5
401
330
1F
100
AcDbEntity
  8
0
  6
Continuous
 62
     7
100
AcDbCircle
 10
40.29243893094112
 20
82.47229626112942
 30
0.0
 40
2.900000000000003
100
AcDbArc
 50
275.178515230623
 51
310.2193368931502
  0
ARC
  5
402
330
1F
100
AcDbEntity
  8
0
  6
Continuous
 62
     7
100
AcDbCircle
 10
40.29243893094112
 20
82.47229626112942
 30
0.0
 40
2.900000000000007
100
AcDbArc
 50
94.71242622516823
 51
129.8897626613292
  0
ARC
  5
403
330
1F
100
AcDbEntity
  8
0
  6
Continuous
 62
     7
100
AcDbCircle
 10
40.29243893094112
 20
82.47229626112942
 30
0.0
 40
2.899999999999979
100
AcDbArc
 50
230.1102373386708
 51
265.2875737748317
  0
ARC
  5
404
330
1F
100
AcDbEntity
  8
0
  6
Continuous
 62
     7
100
AcDbCircle
 10
40.29243893094112
 20
82.47229626112942
 30
0.0
 40
2.799999999999945
100
AcDbArc
 50
216.7867892982626
 51
233.213210701739
  0
ARC
  5
405
330
1F
100
AcDbEntity
  8
0
  6
Continuous
 62
     7
100
AcDbCircle
 10
86.79269700877086
 20
82.4722962611293
 30
0.0
 40
5.599999999999948
100
AcDbArc
 50
8.25595822582703
 51
30.00000000000024
  0
ARC
  5
406
330
1F
100
AcDbEntity
  8
0
  6
Continuous
 62
     7
100
AcDbCircle
 10
86.79269700877086
 20
82.4722962611293
 30
0.0
 40
5.599999999999983
100
AcDbArc
 50
329.9999999999998
 51
351.744041774173
  0
CIRCLE
  5
407
330
1F
100
AcDbEntity
  8
0
  6
Continuous
 62
     7
100
AcDbCircle
 10
35.29243893094106
 20
42.62229587613977
 30
0.0
 40
2.600000000000037
  0
CIRCLE
  5
408
330
1F
100
AcDbEntity
  8
0
  6
Continuous
 62
     7
100
AcDbCircle
 10
35.29243893094106
 20
42.62229587613977
 30
0.0
 40
2.099999999999973
  0
CIRCLE
  5
409
330
1F
100
AcDbEntity
  8
0
  6
Continuous
 62
     7
100
AcDbCircle
 10
35.50022580689689
 20
37.27145075106996
 30
0.0
 40
2.600000000000023
  0
CIRCLE
  5
40A
330
1F
100
AcDbEntity
  8
0
  6
Continuous
 62
     7
100
AcDbCircle
 10
35.50022580689689
 20
37.27145075106996
 30
0.0
 40
2.100000000000009
  0
CIRCLE
  5
40B
330
1F
100
AcDbEntity
  8
0
  6
Continuous
 62
     7
100
AcDbCircle
 10
40.292438930941
 20
46.82229587613968
 30
0.0
 40
2.599999999999966
  0
CIRCLE
  5
40C
330
1F
100
AcDbEntity
  8
0
  6
Continuous
 62
     7
100
AcDbCircle
 10
40.292438930941
 20
46.82229587613968
 30
0.0
 40
2.099999999999966
  0
CIRCLE
  5
40D
330
1F
100
AcDbEntity
  8
0
  6
Continuous
 62
     7
100
AcDbCircle
 10
42.19249443538776
 20
44.0222325299071
 30
0.0
 40
0.6497291070219262
  0
CIRCLE
  5
40E
330
1F
100
AcDbEntity
  8
0
  6
Continuous
 62
     7
100
AcDbCircle
 10
42.19249443538776
 20
44.0222325299071
 30
0.0
 40
0.5650571070219144
  0
CIRCLE
  5
40F
330
1F
100
AcDbEntity
  8
0
  6
Continuous
 62
     7
100
AcDbCircle
 10
45.29243893094106
 20
42.62229587613983
 30
0.0
 40
2.600000000000037
  0
CIRCLE
  5
410
330
1F
100
AcDbEntity
  8
0
  6
Continuous
 62
     7
100
AcDbCircle
 10
45.29243893094106
 20
42.62229587613983
 30
0.0
 40
2.099999999999973
  0
CIRCLE
  5
411
330
1F
100
AcDbEntity
  8
0
  6
Continuous
 62
     7
100
AcDbCircle
 10
45.0846520549854
 20
37.27145075106999
 30
0.0
 40
2.600000000000016
  0
CIRCLE
  5
412
330
1F
100
AcDbEntity
  8
0
  6
Continuous
 62
     7
100
AcDbCircle
 10
45.0846520549854
 20
37.27145075106999
 30
0.0
 40
2.100000000000025
  0
CIRCLE
  5
413
330
1F
100
AcDbEntity
  8
0
  6
Continuous
 62
     7
100
AcDbCircle
 10
45.29243893094106
 20
126.7722966449698
 30
0.0
 40
0.7999999999999392
  0
CIRCLE
  5
414
330
1F
100
AcDbEntity
  8
0
  6
Continuous
 62
     7
100
AcDbCircle
 10
45.29243893094106
 20
126.7722966449698
 30
0.0
 40
0.0999999999999831
  0
CIRCLE
  5
415
330
1F
100
AcDbEntity
  8
0
  6
Continuous
 62
     7
100
AcDbCircle
 10
35.29243893094106
 20
120.5722966449699
 30
0.0
 40
0.8000000000000114
  0
CIRCLE
  5
416
330
1F
100
AcDbEntity
  8
0
  6
Continuous
 62
     7
100
AcDbCircle
 10
35.29243893094106
 20
120.5722966449699
 30
0.0
 40
0.099999999999973
  0
CIRCLE
  5
417
330
1F
100
AcDbEntity
  8
0
  6
Continuous
 62
     7
100
AcDbCircle
 10
40.29243893094117
 20
129.2222966449699
 30
0.0
 40
0.8000000000000214
  0
CIRCLE
  5
418
330
1F
100
AcDbEntity
  8
0
  6
Continuous
 62
     7
100
AcDbCircle
 10
40.29243893094117
 20
129.2222966449699
 30
0.0
 40
0.0999999999999593
  0
CIRCLE
  5
419
330
1F
100
AcDbEntity
  8
0
  6
Continuous
 62
     7
100
AcDbCircle
 10
35.29243893094106
 20
126.7722966449699
 30
0.0
 40
0.8000000000000355
  0
CIRCLE
  5
41A
330
1F
100
AcDbEntity
  8
0
  6
Continuous
 62
     7
100
AcDbCircle
 10
35.29243893094106
 20
126.7722966449699
 30
0.0
 40
0.0999999999999765
  0
CIRCLE
  5
41B
330
1F
100
AcDbEntity
  8
0
  6
Continuous
 62
     7
100
AcDbCircle
 10
40.29243893094089
 20
126.753816488293
 30
0.0
 40
0.8688965049917101
  0
CIRCLE
  5
41C
330
1F
100
AcDbEntity
  8
0
  6
Continuous
 62
     7
100
AcDbCircle
 10
45.29243893094106
 20
120.5722966449698
 30
0.0
 40
0.8000000000000114
  0
CIRCLE
  5
41D
330
1F
100
AcDbEntity
  8
0
  6
Continuous
 62
     7
100
AcDbCircle
 10
45.29243893094106
 20
120.5722966449698
 30
0.0
 40
0.099999999999973
  0
CIRCLE
  5
41E
330
1F
100
AcDbEntity
  8
0
  6
Continuous
 62
     7
100
AcDbCircle
 10
40.29243893094089
 20
126.753816488293
 30
0.0
 40
0.9990978668652701
  0
CIRCLE
  5
41F
330
1F
100
AcDbEntity
  8
1
  6
Continuous
 62
     7
100
AcDbCircle
 10
52.59083464465083
 20
4.19798408144603
 30
0.0
 40
1.247468231122639
  0
SPLINE
  5
420
330
1F
100
AcDbEntity
  8
0
  6
Continuous
 62
     7
100
AcDbSpline
210
0.0
220
0.0
230
1.0
 70
     8
 71
     3
 72
    11
 73
     7
 74
     5
 42
0.000000001
 43
0.0000000001
 44
0.00000001
 40
0.0
 40
0.0
 40
0.0
 40
0.0
 40
0.2388983936591489
 40
0.4961983933069953
 40
0.7362875162811675
 40
0.9923954452692919
 40
0.9923954452692919
 40
0.9923954452692919
 40
0.9923954452692919
 10
38.10668963150171
 20
28.99363794342925
 30
0.0
 10
38.05020614446025
 20
28.93750418887258
 30
0.0
 10
37.93288843251612
 20
28.8209128589882
 30
0.0
 10
37.7589012029399
 20
28.64781194206238
 30
0.0
 10
37.58089679621503
 20
28.47061534671229
 30
0.0
 10
37.46371650385547
 20
28.35388653947748
 30
0.0
 10
37.40323488830241
 20
28.29363794342925
 30
0.0
 11
38.10668963150171
 21
28.99363794342925
 31
0.0
 11
37.93725409106664
 21
28.82522167304032
 31
0.0
 11
37.7548429504521
 21
28.6437568951884
 31
0.0
 11
37.58469043613388
 21
28.47437298555355
 31
0.0
 11
37.40323488830241
 21
28.29363794342925
 31
0.0
  0
SPLINE
  5
421
330
1F
100
AcDbEntity
  8
0
  6
Continuous
 62
     7
100
AcDbSpline
210
0.0
220
0.0
230
1.0
 70
     8
 71
     3
 72
     9
 73
     5
 74
     3
 42
0.000000001
 43
0.0000000001
 44
0.00000001
 40
0.0
 40
0.0
 40
0.0
 40
0.0
 40
0.2832433754467064
 40
0.5664867508933635
 40
0.5664867508933635
 40
0.5664867508933635
 40
0.5664867508933635
 10
38.77215935139004
 20
27.46755889804803
 30
0.0
 10
38.86644025537127
 20
27.46002879122959
 30
0.0
 10
39.05500206386464
 20
27.44496859753614
 30
0.0
 10
39.24356387235806
 20
27.4600287912296
 30
0.0
 10
39.33784477633925
 20
27.46755889804804
 30
0.0
 11
38.77215935139004
 21
27.46755889804803
 31
0.0
 11
39.05500206386467
 21
27.45249868438287
 31
0.0
 11
39.33784477633925
 21
27.46755889804804
 31
0.0
  0
SPLINE
  5
422
330
1F
100
AcDbEntity
  8
0
  6
Continuous
 62
     7
100
AcDbSpline
210
0.0
220
0.0
230
1.0
 70
     8
 71
     3
 72
     9
 73
     5
 74
     3
 42
0.000000001
 43
0.0000000001
 44
0.00000001
 40
0.0
 40
0.0
 40
0.0
 40
0.0
 40
0.1890725145901135
 40
0.3802777736714056
 40
0.3802777736714056
 40
0.3802777736714056
 40
0.3802777736714056
 10
39.12571274198332
 20
27.32800470613465
 30
0.0
 10
39.06605242512676
 20
27.34843322955839
 30
0.0
 10
38.94605882802514
 20
27.38952072955657
 30
0.0
 10
38.83034216894097
 20
27.4414490909282
 30
0.0
 10
38.77215935139004
 20
27.46755889804803
 30
0.0
 11
39.12571274198332
 21
27.32800470613465
 31
0.0
 11
38.94778906952597
 21
27.39197018642365
 31
0.0
 11
38.77215935139004
 21
27.46755889804803
 31
0.0
  0
SPLINE
  5
423
330
1F
100
AcDbEntity
  8
0
  6
Continuous
 62
     7
100
AcDbSpline
210
0.0
220
0.0
230
1.0
 70
     8
 71
     3
 72
    11
 73
     7
 74
     5
 42
0.000000001
 43
0.0000000001
 44
0.00000001
 40
0.0
 40
0.0
 40
0.0
 40
0.0
 40
0.2067272098971293
 40
0.4293637856432518
 40
0.6371514730763674
 40
0.8588306003710939
 40
0.8588306003710939
 40
0.8588306003710939
 40
0.8588306003710939
 10
38.93021659547817
 20
28.99363794347788
 30
0.0
 10
38.89025598528725
 20
28.93749874401106
 30
0.0
 10
38.80725947849204
 20
28.82089996120345
 30
0.0
 10
38.6841937650593
 20
28.64780541239845
 30
0.0
 10
38.55829001871543
 20
28.47061340674681
 30
0.0
 10
38.47541194879916
 20
28.35388828919256
 30
0.0
 10
38.43263254205176
 20
28.29363794342925
 30
0.0
 11
38.93021659547817
 21
28.99363794347788
 31
0.0
 11
38.81034982637569
 21
28.82520962941537
 31
0.0
 11
38.68133451332888
 21
28.6437651644641
 31
0.0
 11
38.56098155725375
 21
28.47438131336227
 31
0.0
 11
38.43263254205176
 21
28.29363794342925
 31
0.0
  0
SPLINE
  5
424
330
1F
100
AcDbEntity
  8
0
  6
Continuous
 62
     7
100
AcDbSpline
210
0.0
220
0.0
230
1.0
 70
     8
 71
     3
 72
     9
 73
     5
 74
     3
 42
0.000000001
 43
0.0000000001
 44
0.00000001
 40
0.0
 40
0.0
 40
0.0
 40
0.0
 40
0.1859773574330159
 40
0.3762299641297192
 40
0.3762299641297192
 40
0.3762299641297192
 40
0.3762299641297192
 10
39.48830393094114
 20
27.23007396370463
 30
0.0
 10
39.42713583756603
 20
27.24092781244797
 30
0.0
 10
39.30339352270987
 20
27.26288503771654
 30
0.0
 10
39.18538665313712
 20
27.3061343239986
 30
0.0
 10
39.12571274198332
 20
27.32800470613465
 30
0.0
 11
39.48830393094114
 21
27.23007396370463
 31
0.0
 11
39.30620111217833
 21
27.26783824702115
 31
0.0
 11
39.12571274198332
 21
27.32800470613465
 31
0.0
  0
SPLINE
  5
425
330
1F
100
AcDbEntity
  8
0
  6
Continuous
 62
     7
100
AcDbSpline
210
0.0
220
0.0
230
1.0
 70
     8
 71
     3
 72
     9
 73
     5
 74
     3
 42
0.000000001
 43
0.0000000001
 44
0.00000001
 40
0.0
 40
0.0
 40
0.0
 40
0.0
 40
0.1912052590812883
 40
0.380277773671403
 40
0.380277773671403
 40
0.380277773671403
 40
0.380277773671403
 10
39.33784477633925
 20
27.46755889804804
 30
0.0
 10
39.39602759389018
 20
27.44144909092821
 30
0.0
 10
39.51174425297435
 20
27.38952072955657
 30
0.0
 10
39.63173785007597
 20
27.34843322955839
 30
0.0
 10
39.69139816693253
 20
27.32800470613465
 30
0.0
 11
39.33784477633925
 21
27.46755889804804
 31
0.0
 11
39.51347449447518
 21
27.39197018642366
 31
0.0
 11
39.69139816693253
 21
27.32800470613465
 31
0.0
  0
SPLINE
  5
426
330
1F
100
AcDbEntity
  8
0
  6
Continuous
 62
     7
100
AcDbSpline
210
0.0
220
0.0
230
1.0
 70
     8
 71
     3
 72
    11
 73
     7
 74
     5
 42
0.000000001
 43
0.0000000001
 44
0.00000001
 40
0.0
 40
0.0
 40
0.0
 40
0.0
 40
0.2561079277995945
 40
0.4961970519622966
 40
0.7534970516137254
 40
0.9923954452692918
 40
0.9923954452692918
 40
0.9923954452692918
 40
0.9923954452692918
 10
43.18164297357988
 20
28.29363794342928
 30
0.0
 10
43.12116135830752
 20
28.35388653919791
 30
0.0
 10
43.00398106594798
 20
28.47061534643277
 30
0.0
 10
42.8259766592224
 20
28.64781194178384
 30
0.0
 10
42.6519894293653
 20
28.82091285898904
 30
0.0
 10
42.53467171742116
 20
28.93750418887345
 30
0.0
 10
42.47818823038058
 20
28.99363794342928
 30
0.0
 11
43.18164297357988
 21
28.29363794342928
 31
0.0
 11
43.00018742659061
 21
28.47437298471494
 31
0.0
 11
42.83003491143019
 21
28.64375689518843
 31
0.0
 11
42.64762377081309
 21
28.82522167304286
 31
0.0
 11
42.47818823038058
 21
28.99363794342928
 31
0.0
  0
SPLINE
  5
427
330
1F
100
AcDbEntity
  8
0
  6
Continuous
 62
     7
100
AcDbSpline
210
0.0
220
0.0
230
1.0
 70
     8
 71
     3
 72
    11
 73
     7
 74
     5
 42
0.000000001
 43
0.0000000001
 44
0.00000001
 40
0.0
 40
0.0
 40
0.0
 40
0.0
 40
0.2216200592589713
 40
0.4293654773714611
 40
0.6519739133121354
 40
0.8586410184122438
 40
0.8586410184122438
 40
0.8586410184122438
 40
0.8586410184122438
 10
42.16501366737016
 20
28.29363794342926
 30
0.0
 10
42.12226030905408
 20
28.35388263377584
 30
0.0
 10
42.03943017705711
 20
28.4706003552175
 30
0.0
 10
41.91360224974939
 20
28.6477932776016
 30
0.0
 10
41.79061752399699
 20
28.82089201101879
 30
0.0
 10
41.70768383802123
 20
28.93749939045444
 30
0.0
 10
41.66775687795816
 20
28.99363794342927
 30
0.0
 11
42.16501366737016
 21
28.29363794342926
 31
0.0
 11
42.03674415580178
 21
28.47436531564466
 31
0.0
 11
41.91646403692944
 21
28.64374905675322
 31
0.0
 11
41.7875245970546
 21
28.82521292808445
 31
0.0
 11
41.66775687795816
 21
28.99363794342927
 31
0.0
  0
SPLINE
  5
428
330
1F
100
AcDbEntity
  8
0
  6
Continuous
 62
     7
100
AcDbSpline
210
0.0
220
0.0
230
1.0
 70
     8
 71
     3
 72
    11
 73
     7
 74
     5
 42
0.000000001
 43
0.0000000001
 44
0.00000001
 40
0.0
 40
0.0
 40
0.0
 40
0.0
 40
0.222055695796636
 40
0.4295551918090653
 40
0.6526894188198442
 40
0.8589902338103805
 40
0.8589902338103805
 40
0.8589902338103805
 40
0.8589902338103805
 10
42.43139095290162
 20
28.29363794342926
 30
0.0
 10
42.38852815973114
 20
28.35398302675094
 30
0.0
 10
42.30561230415389
 20
28.47071744267084
 30
0.0
 10
42.17955485407619
 20
28.64803986205514
 30
0.0
 10
42.05648385610795
 20
28.82104192306446
 30
0.0
 10
41.97343039351551
 20
28.93762930804364
 30
0.0
 10
41.93353146136117
 20
28.99363794344942
 30
0.0
 11
42.43139095290162
 21
28.29363794342926
 31
0.0
 11
42.30279015092218
 21
28.47466436626805
 31
0.0
 11
42.18256563343432
 21
28.64378593864052
 31
0.0
 11
42.05321063725902
 21
28.82559949212494
 31
0.0
 11
41.93353146136117
 21
28.99363794344942
 31
0.0
  0
SPLINE
  5
429
330
1F
100
AcDbEntity
  8
0
  6
Continuous
 62
     7
100
AcDbSpline
210
0.0
220
0.0
230
1.0
 70
     8
 71
     3
 72
    11
 73
     7
 74
     5
 42
0.000000001
 43
0.0000000001
 44
0.00000001
 40
0.0
 40
0.0
 40
0.0
 40
0.0
 40
0.2062586914237157
 40
0.4293378893418478
 40
0.6367906122376992
 40
0.8587804029413573
 40
0.8587804029413573
 40
0.8587804029413573
 40
0.8587804029413573
 10
38.66167420074159
 20
28.99363794342925
 30
0.0
 10
38.62180801920883
 20
28.93762322569343
 30
0.0
 10
38.53882456027124
 20
28.82102575114249
 30
0.0
 10
38.41584306850713
 20
28.64801891313195
 30
0.0
 10
38.28987396781595
 20
28.47070228960394
 30
0.0
 10
38.20701084991666
 20
28.35397649093137
 30
0.0
 10
38.16417679656554
 20
28.29363794342925
 30
0.0
 11
38.66167420074159
 21
28.99363794342925
 31
0.0
 11
38.54209105390171
 21
28.82558283704779
 31
0.0
 11
38.41283410949923
 21
28.64376707626323
 31
0.0
 11
38.29268981430761
 21
28.47464587543041
 31
0.0
 11
38.16417679656554
 21
28.29363794342925
 31
0.0
  0
SPLINE
  5
42A
330
1F
100
AcDbEntity
  8
0
  6
Continuous
 62
     7
100
AcDbSpline
210
0.0
220
0.0
230
1.0
 70
     8
 71
     3
 72
    11
 73
     7
 74
     5
 42
0.000000001
 43
0.0000000001
 44
0.00000001
 40
0.0
 40
0.0
 40
0.0
 40
0.0
 40
0.2066659470122894
 40
0.4292755410402134
 40
0.6370196262274879
 40
0.8586410184122366
 40
0.8586410184122366
 40
0.8586410184122366
 40
0.8586410184122366
 10
38.57531909103103
 20
28.99363794342925
 30
0.0
 10
38.53539235467273
 20
28.93749970505701
 30
0.0
 10
38.45245866863171
 20
28.82089232566803
 30
0.0
 10
38.32947420008247
 20
28.64779395454441
 30
0.0
 10
38.20364604912393
 20
28.47060071751942
 30
0.0
 10
38.12081591709175
 20
28.35388299610246
 30
0.0
 10
38.07806230161903
 20
28.29363794342925
 30
0.0
 11
38.57531909103103
 21
28.99363794342925
 31
0.0
 11
38.45555204289556
 21
28.82521387200117
 31
0.0
 11
38.32661193206072
 21
28.6437490567532
 31
0.0
 11
38.20633258478698
 21
28.47436640253252
 31
0.0
 11
38.07806230161903
 21
28.29363794342925
 31
0.0
  0
SPLINE
  5
42B
330
1F
100
AcDbEntity
  8
0
  6
Continuous
 62
     7
100
AcDbSpline
210
0.0
220
0.0
230
1.0
 70
     8
 71
     3
 72
    11
 73
     7
 74
     5
 42
0.000000001
 43
0.0000000001
 44
0.00000001
 40
0.0
 40
0.0
 40
0.0
 40
0.0
 40
0.221679956576027
 40
0.4294668147282296
 40
0.6521137535170217
 40
0.8588306003803797
 40
0.8588306003803797
 40
0.8588306003803797
 40
0.8588306003803797
 10
42.51755020812398
 20
28.29363794342928
 30
0.0
 10
42.47477064132752
 20
28.35388851457283
 30
0.0
 10
42.3918925713817
 20
28.47061363210628
 30
0.0
 10
42.26598682414063
 20
28.64780845359312
 30
0.0
 10
42.14292126956401
 20
28.82090277617438
 30
0.0
 10
42.05992476203747
 20
28.9375015584648
 30
0.0
 10
42.0199661546816
 20
28.9936379434779
 30
0.0
 11
42.51755020812398
 21
28.29363794342928
 31
0.0
 11
42.38920071268954
 21
28.47438198944239
 31
0.0
 11
42.26884823684618
 21
28.64376516446412
 31
0.0
 11
42.13982691682551
 21
28.82521807387647
 31
0.0
 11
42.0199661546816
 21
28.9936379434779
 31
0.0
  0
SPLINE
  5
42C
330
1F
100
AcDbEntity
  8
0
  6
Continuous
 62
     7
100
AcDbSpline
210
0.0
220
0.0
230
1.0
 70
     8
 71
     3
 72
     9
 73
     5
 74
     3
 42
0.000000001
 43
0.0000000001
 44
0.00000001
 40
0.0
 40
0.0
 40
0.0
 40
0.0
 40
0.3042115542822167
 40
0.6093837263159301
 40
0.6093837263159301
 40
0.6093837263159301
 40
0.6093837263159301
 10
40.29243893094112
 20
27.23007396370463
 30
0.0
 10
40.39335943464575
 20
27.24081391073417
 30
0.0
 10
40.59551911884611
 20
27.26232773841169
 30
0.0
 10
40.79405518162775
 20
27.30608938206696
 30
0.0
 10
40.8934796949497
 20
27.32800470613466
 30
0.0
 11
40.29243893094112
 21
27.23007396370463
 31
0.0
 11
40.594297389311
 21
27.26783824702116
 31
0.0
 11
40.8934796949497
 21
27.32800470613466
 31
0.0
  0
SPLINE
  5
42D
330
1F
100
AcDbEntity
  8
0
  6
Continuous
 62
     7
100
AcDbSpline
210
0.0
220
0.0
230
1.0
 70
     8
 71
     3
 72
     9
 73
     5
 74
     3
 42
0.000000001
 43
0.0000000001
 44
0.00000001
 40
0.0
 40
0.0
 40
0.0
 40
0.0
 40
0.3051721720337413
 40
0.6093837263159355
 40
0.6093837263159355
 40
0.6093837263159355
 40
0.6093837263159355
 10
39.69139816693253
 20
27.32800470613465
 30
0.0
 10
39.79082268025449
 20
27.30608938206695
 30
0.0
 10
39.98935874303611
 20
27.26232773841168
 30
0.0
 10
40.1915184272365
 20
27.24081391073418
 30
0.0
 10
40.29243893094112
 20
27.23007396370463
 30
0.0
 11
39.69139816693253
 21
27.32800470613465
 31
0.0
 11
39.99058047257125
 21
27.26783824702115
 31
0.0
 11
40.29243893094112
 21
27.23007396370463
 31
0.0
  0
SPLINE
  5
42E
330
1F
100
AcDbEntity
  8
0
  6
Continuous
 62
     7
100
AcDbSpline
210
0.0
220
0.0
230
1.0
 70
     8
 71
     3
 72
     9
 73
     5
 74
     3
 42
0.000000001
 43
0.0000000001
 44
0.00000001
 40
0.0
 40
0.0
 40
0.0
 40
0.0
 40
0.190252606696682
 40
0.3762299641296638
 40
0.3762299641296638
 40
0.3762299641296638
 40
0.3762299641296638
 10
41.45916511989891
 20
27.32800470613466
 30
0.0
 10
41.39949120874512
 20
27.30613432399862
 30
0.0
 10
41.28148433917241
 20
27.26288503771656
 30
0.0
 10
41.15774202431624
 20
27.24092781244797
 30
0.0
 10
41.09657393094115
 20
27.23007396370464
 30
0.0
 11
41.45916511989891
 21
27.32800470613466
 31
0.0
 11
41.27867674970393
 21
27.26783824702117
 31
0.0
 11
41.09657393094115
 21
27.23007396370464
 31
0.0
  0
SPLINE
  5
42F
330
1F
100
AcDbEntity
  8
0
  6
Continuous
 62
     7
100
AcDbSpline
210
0.0
220
0.0
230
1.0
 70
     8
 71
     3
 72
     9
 73
     5
 74
     3
 42
0.000000001
 43
0.0000000001
 44
0.00000001
 40
0.0
 40
0.0
 40
0.0
 40
0.0
 40
0.1890725145901202
 40
0.3802777736714057
 40
0.3802777736714057
 40
0.3802777736714057
 40
0.3802777736714057
 10
40.8934796949497
 20
27.32800470613466
 30
0.0
 10
40.95314001180626
 20
27.34843322955841
 30
0.0
 10
41.07313360890787
 20
27.38952072955657
 30
0.0
 10
41.18885026799204
 20
27.44144909092821
 30
0.0
 10
41.24703308554298
 20
27.46755889804804
 30
0.0
 11
40.8934796949497
 21
27.32800470613466
 31
0.0
 11
41.07140336740706
 21
27.39197018642366
 31
0.0
 11
41.24703308554298
 21
27.46755889804804
 31
0.0
  0
SPLINE
  5
430
330
1F
100
AcDbEntity
  8
0
  6
Continuous
 62
     7
100
AcDbSpline
210
0.0
220
0.0
230
1.0
 70
     8
 71
     3
 72
     9
 73
     5
 74
     3
 42
0.000000001
 43
0.0000000001
 44
0.00000001
 40
0.0
 40
0.0
 40
0.0
 40
0.0
 40
0.4206786595505476
 40
0.8549809765869258
 40
0.8549809765869258
 40
0.8549809765869258
 40
0.8549809765869258
 10
41.24703308554298
 20
27.46755889804804
 30
0.0
 10
41.37231128887491
 20
27.53125983487996
 30
0.0
 10
41.62692481385436
 20
27.66072467742727
 30
0.0
 10
41.85389473602851
 20
27.83418414350013
 30
0.0
 10
41.96918801269307
 20
27.92229587613967
 30
0.0
 11
41.24703308554298
 21
27.46755889804804
 31
0.0
 11
41.61617527841678
 21
27.66931265031273
 31
0.0
 11
41.96918801269307
 21
27.92229587613967
 31
0.0
  0
SPLINE
  5
431
330
1F
100
AcDbEntity
  8
0
  6
Continuous
 62
     7
100
AcDbSpline
210
0.0
220
0.0
230
1.0
 70
     8
 71
     3
 72
     9
 73
     5
 74
     3
 42
0.000000001
 43
0.0000000001
 44
0.00000001
 40
0.0
 40
0.0
 40
0.0
 40
0.0
 40
0.4343023170363667
 40
0.8549809765869262
 40
0.8549809765869262
 40
0.8549809765869262
 40
0.8549809765869262
 10
42.53487343764228
 20
27.92229587613968
 30
0.0
 10
42.41958016097774
 20
27.83418414350013
 30
0.0
 10
42.19261023880357
 20
27.66072467742726
 30
0.0
 10
41.93799671382413
 20
27.53125983487997
 30
0.0
 10
41.81271851049219
 20
27.46755889804806
 30
0.0
 11
42.53487343764228
 21
27.92229587613968
 31
0.0
 11
42.18186070336601
 21
27.66931265031273
 31
0.0
 11
41.81271851049219
 21
27.46755889804806
 31
0.0
  0
SPLINE
  5
432
330
1F
100
AcDbEntity
  8
0
  6
Continuous
 62
     7
100
AcDbSpline
210
0.0
220
0.0
230
1.0
 70
     8
 71
     3
 72
     9
 73
     5
 74
     3
 42
0.000000001
 43
0.0000000001
 44
0.00000001
 40
0.0
 40
0.0
 40
0.0
 40
0.0
 40
0.1912052590812729
 40
0.3802777736714077
 40
0.3802777736714077
 40
0.3802777736714077
 40
0.3802777736714077
 10
41.81271851049219
 20
27.46755889804806
 30
0.0
 10
41.75453569294127
 20
27.44144909092822
 30
0.0
 10
41.6388190338571
 20
27.38952072955657
 30
0.0
 10
41.51882543675547
 20
27.3484332295584
 30
0.0
 10
41.45916511989891
 20
27.32800470613466
 30
0.0
 11
41.81271851049219
 21
27.46755889804806
 31
0.0
 11
41.63708879235629
 21
27.39197018642367
 31
0.0
 11
41.45916511989891
 21
27.32800470613466
 31
0.0
  0
SPLINE
  5
433
330
1F
100
AcDbEntity
  8
0
  6
Continuous
 62
     7
100
AcDbSpline
210
0.0
220
0.0
230
1.0
 70
     8
 71
     3
 72
     9
 73
     5
 74
     3
 42
0.000000001
 43
0.0000000001
 44
0.00000001
 40
0.0
 40
0.0
 40
0.0
 40
0.0
 40
0.4343023170363469
 40
0.8549809765869063
 40
0.8549809765869063
 40
0.8549809765869063
 40
0.8549809765869063
 10
38.05000442424002
 20
135.7222966449699
 30
0.0
 10
38.16529770090456
 20
135.8104083776095
 30
0.0
 10
38.3922676230787
 20
135.9838678436822
 30
0.0
 10
38.64688114805816
 20
136.1133326862296
 30
0.0
 10
38.7721593513901
 20
136.1770336230615
 30
0.0
 11
38.05000442424002
 21
135.7222966449699
 31
0.0
 11
38.40301715851628
 21
135.9752798707968
 31
0.0
 11
38.7721593513901
 21
136.1770336230615
 31
0.0
  0
SPLINE
  5
434
330
1F
100
AcDbEntity
  8
0
  6
Continuous
 62
     7
100
AcDbSpline
210
0.0
220
0.0
230
1.0
 70
     8
 71
     3
 72
     9
 73
     5
 74
     3
 42
0.000000001
 43
0.0000000001
 44
0.00000001
 40
0.0
 40
0.0
 40
0.0
 40
0.0
 40
0.0818495641759444
 40
0.1641224441635147
 40
0.1641224441635147
 40
0.1641224441635147
 40
0.1641224441635147
 10
41.09657393094115
 20
136.2425598684266
 30
0.0
 10
41.12179787117363
 20
136.2321540425053
 30
0.0
 10
41.17237619887003
 20
136.2112885546337
 30
0.0
 10
41.22210470497379
 20
136.1884715567482
 30
0.0
 10
41.24703308554298
 20
136.1770336230615
 30
0.0
 11
41.09657393094115
 21
136.2425598684266
 31
0.0
 11
41.1720343869345
 21
136.2108570174775
 31
0.0
 11
41.24703308554298
 21
136.1770336230615
 31
0.0
  0
SPLINE
  5
435
330
1F
100
AcDbEntity
  8
0
  6
Continuous
 62
     7
100
AcDbSpline
210
0.0
220
0.0
230
1.0
 70
     8
 71
     3
 72
     9
 73
     5
 74
     3
 42
0.000000001
 43
0.0000000001
 44
0.00000001
 40
0.0
 40
0.0
 40
0.0
 40
0.0
 40
0.2832433754466557
 40
0.566486750893354
 40
0.566486750893354
 40
0.566486750893354
 40
0.566486750893354
 10
41.81271851049219
 20
136.1770336230615
 30
0.0
 10
41.71843760651098
 20
136.18456372988
 30
0.0
 10
41.52987579801758
 20
136.1996239235733
 30
0.0
 10
41.34131398952421
 20
136.18456372988
 30
0.0
 10
41.24703308554298
 20
136.1770336230615
 30
0.0
 11
41.81271851049219
 21
136.1770336230615
 31
0.0
 11
41.52987579801761
 21
136.1920938367267
 31
0.0
 11
41.24703308554298
 21
136.1770336230615
 31
0.0
  0
SPLINE
  5
436
330
1F
100
AcDbEntity
  8
0
  6
Continuous
 62
     7
100
AcDbSpline
210
0.0
220
0.0
230
1.0
 70
     8
 71
     3
 72
     9
 73
     5
 74
     3
 42
0.000000001
 43
0.0000000001
 44
0.00000001
 40
0.0
 40
0.0
 40
0.0
 40
0.0
 40
0.0822728799875755
 40
0.1641224441635154
 40
0.1641224441635154
 40
0.1641224441635154
 40
0.1641224441635154
 10
39.33784477633931
 20
136.1770336230615
 30
0.0
 10
39.36277315690849
 20
136.1884715567483
 30
0.0
 10
39.41250166301225
 20
136.2112885546337
 30
0.0
 10
39.46307999070865
 20
136.2321540425053
 30
0.0
 10
39.48830393094114
 20
136.2425598684266
 30
0.0
 11
39.33784477633931
 21
136.1770336230615
 31
0.0
 11
39.41284347494778
 21
136.2108570174776
 31
0.0
 11
39.48830393094114
 21
136.2425598684266
 31
0.0
  0
SPLINE
  5
437
330
1F
100
AcDbEntity
  8
0
  6
Continuous
 62
     7
100
AcDbSpline
210
0.0
220
0.0
230
1.0
 70
     8
 71
     3
 72
     9
 73
     5
 74
     3
 42
0.000000001
 43
0.0000000001
 44
0.00000001
 40
0.0
 40
0.0
 40
0.0
 40
0.0
 40
0.4206786595505407
 40
0.8549809765869107
 40
0.8549809765869107
 40
0.8549809765869107
 40
0.8549809765869107
 10
39.33784477633931
 20
136.1770336230615
 30
0.0
 10
39.21256657300739
 20
136.1133326862296
 30
0.0
 10
38.95795304802793
 20
135.9838678436823
 30
0.0
 10
38.73098312585377
 20
135.8104083776094
 30
0.0
 10
38.61568984918922
 20
135.7222966449699
 30
0.0
 11
39.33784477633931
 21
136.1770336230615
 31
0.0
 11
38.96870258346551
 21
135.9752798707968
 31
0.0
 11
38.61568984918922
 21
135.7222966449699
 31
0.0
  0
SPLINE
  5
438
330
1F
100
AcDbEntity
  8
0
  6
Continuous
 62
     7
100
AcDbSpline
210
0.0
220
0.0
230
1.0
 70
     8
 71
     3
 72
     9
 73
     5
 74
     3
 42
0.000000001
 43
0.0000000001
 44
0.00000001
 40
0.0
 40
0.0
 40
0.0
 40
0.0
 40
0.1890725145901008
 40
0.3802777736713519
 40
0.3802777736713519
 40
0.3802777736713519
 40
0.3802777736713519
 10
41.45916511989897
 20
136.3165878149749
 30
0.0
 10
41.51882543675551
 20
136.2961592915512
 30
0.0
 10
41.63881903385714
 20
136.255071791553
 30
0.0
 10
41.75453569294127
 20
136.2031434301813
 30
0.0
 10
41.81271851049219
 20
136.1770336230615
 30
0.0
 11
41.45916511989897
 21
136.3165878149749
 31
0.0
 11
41.63708879235632
 21
136.2526223346859
 31
0.0
 11
41.81271851049219
 21
136.1770336230615
 31
0.0
  0
SPLINE
  5
439
330
1F
100
AcDbEntity
  8
0
  6
Continuous
 62
     7
100
AcDbSpline
210
0.0
220
0.0
230
1.0
 70
     8
 71
     3
 72
     9
 73
     5
 74
     3
 42
0.000000001
 43
0.0000000001
 44
0.00000001
 40
0.0
 40
0.0
 40
0.0
 40
0.0
 40
0.1084259445464066
 40
0.2161989950097166
 40
0.2161989950097166
 40
0.2161989950097166
 40
0.2161989950097166
 10
39.48830393094114
 20
136.2425598684266
 30
0.0
 10
39.52192744417192
 20
136.2558344325146
 30
0.0
 10
39.58897201140893
 20
136.2823036082891
 30
0.0
 10
39.65732491863203
 20
136.3051827830971
 30
0.0
 10
39.69139816693259
 20
136.3165878149749
 30
0.0
 11
39.48830393094114
 21
136.2425598684266
 31
0.0
 11
39.58950353773314
 21
136.2814806221995
 31
0.0
 11
39.69139816693259
 21
136.3165878149749
 31
0.0
  0
SPLINE
  5
43A
330
1F
100
AcDbEntity
  8
0
  6
Continuous
 62
     7
100
AcDbSpline
210
0.0
220
0.0
230
1.0
 70
     8
 71
     3
 72
     9
 73
     5
 74
     3
 42
0.000000001
 43
0.0000000001
 44
0.00000001
 40
0.0
 40
0.0
 40
0.0
 40
0.0
 40
0.1077730504633101
 40
0.2161989950097166
 40
0.2161989950097166
 40
0.2161989950097166
 40
0.2161989950097166
 10
40.8934796949497
 20
136.3165878149749
 30
0.0
 10
40.92755294325026
 20
136.3051827830971
 30
0.0
 10
40.99590585047336
 20
136.2823036082891
 30
0.0
 10
41.06295041771038
 20
136.2558344325146
 30
0.0
 10
41.09657393094115
 20
136.2425598684266
 30
0.0
 11
40.8934796949497
 21
136.3165878149749
 31
0.0
 11
40.99537432414915
 21
136.2814806221995
 31
0.0
 11
41.09657393094115
 21
136.2425598684266
 31
0.0
  0
SPLINE
  5
43B
330
1F
100
AcDbEntity
  8
0
  6
Continuous
 62
     7
100
AcDbSpline
210
0.0
220
0.0
230
1.0
 70
     8
 71
     3
 72
     9
 73
     5
 74
     3
 42
0.000000001
 43
0.0000000001
 44
0.00000001
 40
0.0
 40
0.0
 40
0.0
 40
0.0
 40
0.1912052590812772
 40
0.3802777736714048
 40
0.3802777736714048
 40
0.3802777736714048
 40
0.3802777736714048
 10
38.7721593513901
 20
136.1770336230615
 30
0.0
 10
38.83034216894102
 20
136.2031434301813
 30
0.0
 10
38.94605882802519
 20
136.255071791553
 30
0.0
 10
39.06605242512681
 20
136.2961592915512
 30
0.0
 10
39.12571274198338
 20
136.3165878149749
 30
0.0
 11
38.7721593513901
 21
136.1770336230615
 31
0.0
 11
38.947789069526
 21
136.2526223346859
 31
0.0
 11
39.12571274198338
 21
136.3165878149749
 31
0.0
  0
SPLINE
  5
43C
330
1F
100
AcDbEntity
  8
0
  6
Continuous
 62
     7
100
AcDbSpline
210
0.0
220
0.0
230
1.0
 70
     8
 71
     3
 72
     9
 73
     5
 74
     3
 42
0.000000001
 43
0.0000000001
 44
0.00000001
 40
0.0
 40
0.0
 40
0.0
 40
0.0
 40
0.1859773574329902
 40
0.3762299641297138
 40
0.3762299641297138
 40
0.3762299641297138
 40
0.3762299641297138
 10
41.09657393094115
 20
136.4145185574049
 30
0.0
 10
41.15774202431625
 20
136.4036647086616
 30
0.0
 10
41.28148433917242
 20
136.3817074833929
 30
0.0
 10
41.39949120874515
 20
136.3384581971109
 30
0.0
 10
41.45916511989897
 20
136.3165878149749
 30
0.0
 11
41.09657393094115
 21
136.4145185574049
 31
0.0
 11
41.27867674970393
 21
136.3767542740884
 31
0.0
 11
41.45916511989897
 21
136.3165878149749
 31
0.0
  0
SPLINE
  5
43D
330
1F
100
AcDbEntity
  8
0
  6
Continuous
 62
     7
100
AcDbSpline
210
0.0
220
0.0
230
1.0
 70
     8
 71
     3
 72
     9
 73
     5
 74
     3
 42
0.000000001
 43
0.0000000001
 44
0.00000001
 40
0.0
 40
0.0
 40
0.0
 40
0.0
 40
0.1902526066966853
 40
0.3762299641296629
 40
0.3762299641296629
 40
0.3762299641296629
 40
0.3762299641296629
 10
39.12571274198338
 20
136.3165878149749
 30
0.0
 10
39.18538665313718
 20
136.338458197111
 30
0.0
 10
39.3033935227099
 20
136.381707483393
 30
0.0
 10
39.42713583756605
 20
136.4036647086616
 30
0.0
 10
39.48830393094114
 20
136.4145185574049
 30
0.0
 11
39.12571274198338
 21
136.3165878149749
 31
0.0
 11
39.30620111217836
 21
136.3767542740884
 31
0.0
 11
39.48830393094114
 21
136.4145185574049
 31
0.0
  0
SPLINE
  5
43E
330
1F
100
AcDbEntity
  8
0
  6
Continuous
 62
     7
100
AcDbSpline
210
0.0
220
0.0
230
1.0
 70
     8
 71
     3
 72
     9
 73
     5
 74
     3
 42
0.000000001
 43
0.0000000001
 44
0.00000001
 40
0.0
 40
0.0
 40
0.0
 40
0.0
 40
0.3042115542821757
 40
0.6093837263158759
 40
0.6093837263158759
 40
0.6093837263158759
 40
0.6093837263158759
 10
40.29243893094117
 20
136.4145185574049
 30
0.0
 10
40.39335943464579
 20
136.4037786103754
 30
0.0
 10
40.59551911884613
 20
136.3822647826978
 30
0.0
 10
40.79405518162775
 20
136.3385031390426
 30
0.0
 10
40.8934796949497
 20
136.3165878149749
 30
0.0
 11
40.29243893094117
 21
136.4145185574049
 31
0.0
 11
40.59429738931101
 21
136.3767542740884
 31
0.0
 11
40.8934796949497
 21
136.3165878149749
 31
0.0
  0
SPLINE
  5
43F
330
1F
100
AcDbEntity
  8
0
  6
Continuous
 62
     7
100
AcDbSpline
210
0.0
220
0.0
230
1.0
 70
     8
 71
     3
 72
     9
 73
     5
 74
     3
 42
0.000000001
 43
0.0000000001
 44
0.00000001
 40
0.0
 40
0.0
 40
0.0
 40
0.0
 40
0.3051721720337127
 40
0.6093837263159202
 40
0.6093837263159202
 40
0.6093837263159202
 40
0.6093837263159202
 10
39.69139816693259
 20
136.3165878149749
 30
0.0
 10
39.79082268025455
 20
136.3385031390426
 30
0.0
 10
39.98935874303616
 20
136.3822647826979
 30
0.0
 10
40.19151842723655
 20
136.4037786103754
 30
0.0
 10
40.29243893094117
 20
136.4145185574049
 30
0.0
 11
39.69139816693259
 21
136.3165878149749
 31
0.0
 11
39.99058047257129
 21
136.3767542740884
 31
0.0
 11
40.29243893094117
 21
136.4145185574049
 31
0.0
  0
SPLINE
  5
440
330
1F
100
AcDbEntity
  8
0
  6
Continuous
 62
     7
100
AcDbSpline
210
0.0
220
0.0
230
1.0
 70
     8
 71
     3
 72
    11
 73
     7
 74
     5
 42
0.000000001
 43
0.0000000001
 44
0.00000001
 40
0.0
 40
0.0
 40
0.0
 40
0.0
 40
0.2388697320089385
 40
0.4960849434943652
 40
0.7361212066306483
 40
0.9921690928339995
 40
0.9921690928339995
 40
0.9921690928339995
 40
0.9921690928339995
 10
90.57109720263617
 20
84.65935768028412
 30
0.0
 10
90.62724041314608
 20
84.71581829551155
 30
0.0
 10
90.74383871038788
 20
84.83307575752585
 30
0.0
 10
90.91694149279782
 20
85.00698291929464
 30
0.0
 10
91.09412890447261
 20
85.18490347839568
 30
0.0
 10
91.21085198081555
 20
85.30203635518147
 30
0.0
 10
91.27109720267413
 20
85.36249307988611
 30
0.0
 11
90.57109720263617
 21
84.65935768028412
 31
0.0
 11
90.73954044551061
 21
84.82872598546889
 31
0.0
 11
90.92098917096945
 21
85.01103348682578
 31
0.0
 11
91.09037128446826
 21
85.18111319534053
 31
0.0
 11
91.27109720267413
 21
85.36249307988611
 31
0.0
  0
SPLINE
  5
441
330
1F
100
AcDbEntity
  8
0
  6
Continuous
 62
     7
100
AcDbSpline
210
0.0
220
0.0
230
1.0
 70
     8
 71
     3
 72
     9
 73
     5
 74
     3
 42
0.000000001
 43
0.0000000001
 44
0.00000001
 40
0.0
 40
0.0
 40
0.0
 40
0.0
 40
0.4343023170363436
 40
0.8549809765868923
 40
0.8549809765868923
 40
0.8549809765868923
 40
0.8549809765868923
 10
91.64243926996369
 20
80.79554717937738
 30
0.0
 10
91.73055100260324
 20
80.91084045604191
 30
0.0
 10
91.90401046867609
 20
81.13781037821605
 30
0.0
 10
92.0334753112234
 20
81.39242390319549
 30
0.0
 10
92.09717624805535
 20
81.51770210652741
 30
0.0
 11
91.64243926996369
 21
80.79554717937738
 31
0.0
 11
91.89542249579063
 21
81.14855991365363
 31
0.0
 11
92.09717624805535
 21
81.51770210652741
 31
0.0
  0
SPLINE
  5
442
330
1F
100
AcDbEntity
  8
0
  6
Continuous
 62
     7
100
AcDbSpline
210
0.0
220
0.0
230
1.0
 70
     8
 71
     3
 72
    11
 73
     7
 74
     5
 42
0.000000001
 43
0.0000000001
 44
0.00000001
 40
0.0
 40
0.0
 40
0.0
 40
0.0
 40
0.2560478877726527
 40
0.4960841493396141
 40
0.7532993588509787
 40
0.9921690928339794
 40
0.9921690928339794
 40
0.9921690928339794
 40
0.9921690928339794
 10
91.27109720267413
 20
79.58209944237252
 30
0.0
 10
91.21085198044632
 20
79.6425561674477
 30
0.0
 10
91.09412890410339
 20
79.75968904423351
 30
0.0
 10
90.9169414928931
 20
79.93760960286846
 30
0.0
 10
90.743838710852
 20
80.1115167642663
 30
0.0
 10
90.62724041361011
 20
80.22877422628052
 30
0.0
 10
90.57109720263617
 20
80.28523484197449
 30
0.0
 11
91.27109720267413
 21
79.58209944237252
 31
0.0
 11
91.09037128336072
 21
79.76347932802989
 31
0.0
 11
90.92098917096945
 21
79.93355903543282
 31
0.0
 11
90.73954044690294
 21
80.1158665353903
 31
0.0
 11
90.57109720263617
 21
80.28523484197449
 31
0.0
  0
SPLINE
  5
443
330
1F
100
AcDbEntity
  8
0
  6
Continuous
 62
     7
100
AcDbSpline
210
0.0
220
0.0
230
1.0
 70
     8
 71
     3
 72
    11
 73
     7
 74
     5
 42
0.000000001
 43
0.0000000001
 44
0.00000001
 40
0.0
 40
0.0
 40
0.0
 40
0.0
 40
0.2067168469647369
 40
0.4293637856521222
 40
0.6371506400436167
 40
0.8588306003803865
 40
0.8588306003803865
 40
0.8588306003803865
 40
0.8588306003803865
 10
90.57109720262548
 20
80.74476903738882
 30
0.0
 10
90.62723358766613
 20
80.70481043001338
 30
0.0
 10
90.74383236995654
 20
80.62181392248684
 30
0.0
 10
90.91692669151612
 20
80.49874836863663
 30
0.0
 10
91.0941215129751
 20
80.37284262141465
 30
0.0
 10
91.21084663050848
 20
80.28996455146871
 30
0.0
 10
91.27109720267413
 20
80.24718498394647
 30
0.0
 11
90.57109720262548
 21
80.74476903738882
 31
0.0
 11
90.73951707230952
 21
80.62490827518616
 31
0.0
 11
90.92096998163925
 21
80.49588695522426
 31
0.0
 11
91.09035315359503
 21
80.37553448155873
 31
0.0
 11
91.27109720267413
 21
80.24718498394647
 31
0.0
  0
SPLINE
  5
444
330
1F
100
AcDbEntity
  8
0
  6
Continuous
 62
     7
100
AcDbSpline
210
0.0
220
0.0
230
1.0
 70
     8
 71
     3
 72
    11
 73
     7
 74
     5
 42
0.000000001
 43
0.0000000001
 44
0.00000001
 40
0.0
 40
0.0
 40
0.0
 40
0.0
 40
0.2063008151329587
 40
0.4294350419832766
 40
0.6369345390061517
 40
0.8589902337923795
 40
0.8589902337923795
 40
0.8589902337923795
 40
0.8589902337923795
 10
90.57109720267408
 20
80.83120373070643
 30
0.0
 10
90.62710583811658
 20
80.79130479852181
 30
0.0
 10
90.74369322308684
 20
80.7082513359272
 30
0.0
 10
90.91669528436644
 20
80.58518033776821
 30
0.0
 10
91.09401770370705
 20
80.45912288772138
 30
0.0
 10
91.21075211962703
 20
80.3762070321442
 30
0.0
 10
91.27109720267413
 20
80.33334423916877
 30
0.0
 11
90.57109720267408
 21
80.83120373070643
 31
0.0
 11
90.7391356541098
 21
80.71152455471926
 31
0.0
 11
90.92094920746285
 21
80.58216955863612
 31
0.0
 11
91.09007078065898
 21
80.46194504056292
 31
0.0
 11
91.27109720267413
 21
80.33334423916877
 31
0.0
  0
SPLINE
  5
445
330
1F
100
AcDbEntity
  8
0
  6
Continuous
 62
     7
100
AcDbSpline
210
0.0
220
0.0
230
1.0
 70
     8
 71
     3
 72
    11
 73
     7
 74
     5
 42
0.000000001
 43
0.0000000001
 44
0.00000001
 40
0.0
 40
0.0
 40
0.0
 40
0.0
 40
0.2066671042553828
 40
0.4292755410407848
 40
0.6370209580153505
 40
0.8586410184122605
 40
0.8586410184122605
 40
0.8586410184122605
 40
0.8586410184122605
 10
90.57109720267408
 20
83.84761420814634
 30
0.0
 10
90.62723575541942
 20
83.8875411680462
 30
0.0
 10
90.74384313485504
 20
83.97047485402204
 30
0.0
 10
90.91694186796302
 20
84.09345957955485
 30
0.0
 10
91.09413479057653
 20
84.21928750702568
 30
0.0
 10
91.21085251201822
 20
84.3021176390227
 30
0.0
 10
91.27109720267413
 20
84.34487099755832
 30
0.0
 11
90.57109720267408
 21
83.84761420814634
 31
0.0
 11
90.7395222173304
 21
83.96738192675336
 31
0.0
 11
90.92098608935015
 21
84.0963213671176
 31
0.0
 11
91.09036982953083
 21
84.21660148533122
 31
0.0
 11
91.27109720267413
 21
84.34487099755832
 31
0.0
  0
SPLINE
  5
446
330
1F
100
AcDbEntity
  8
0
  6
Continuous
 62
     7
100
AcDbSpline
210
0.0
220
0.0
230
1.0
 70
     8
 71
     3
 72
    11
 73
     7
 74
     5
 42
0.000000001
 43
0.0000000001
 44
0.00000001
 40
0.0
 40
0.0
 40
0.0
 40
0.0
 40
0.2220556959833836
 40
0.4295551918091028
 40
0.6526894179805398
 40
0.8589902338103863
 40
0.8589902338103863
 40
0.8589902338103863
 40
0.8589902338103863
 10
91.27109720267413
 20
84.61124828308984
 30
0.0
 10
91.21075211930167
 20
84.56838548988328
 30
0.0
 10
91.09401770338182
 20
84.48546963430599
 30
0.0
 10
90.91669528422554
 20
84.3594121843904
 30
0.0
 10
90.74369322326689
 20
84.23634118645838
 30
0.0
 10
90.6271058382876
 20
84.15328772386601
 30
0.0
 10
90.57109720265396
 20
84.11338879154938
 30
0.0
 11
91.27109720267413
 21
84.61124828308984
 31
0.0
 11
91.09007077968313
 21
84.4826474810022
 31
0.0
 11
90.92094920746285
 21
84.36242296362248
 31
0.0
 11
90.73913565466222
 21
84.23306796793395
 31
0.0
 11
90.57109720265396
 21
84.11338879154938
 31
0.0
  0
SPLINE
  5
447
330
1F
100
AcDbEntity
  8
0
  6
Continuous
 62
     7
100
AcDbSpline
210
0.0
220
0.0
230
1.0
 70
     8
 71
     3
 72
    11
 73
     7
 74
     5
 42
0.000000001
 43
0.0000000001
 44
0.00000001
 40
0.0
 40
0.0
 40
0.0
 40
0.0
 40
0.2216799576637507
 40
0.4294668147282807
 40
0.6521137551704965
 40
0.8588306003804029
 40
0.8588306003804029
 40
0.8588306003804029
 40
0.8588306003804029
 10
91.27109720267413
 20
84.69740753831216
 30
0.0
 10
91.21084663123496
 20
84.65462797130576
 30
0.0
 10
91.09412151370151
 20
84.57174990135995
 30
0.0
 10
90.91692669176547
 20
84.44584415379944
 30
0.0
 10
90.74383236947988
 20
84.32277859943277
 30
0.0
 10
90.62723358718952
 20
84.23978209190611
 30
0.0
 10
90.57109720262548
 20
84.19982348486978
 30
0.0
 11
91.27109720267413
 21
84.69740753831216
 31
0.0
 11
91.09035315577424
 21
84.56905804224783
 31
0.0
 11
90.92096998163925
 21
84.44870556703434
 31
0.0
 11
90.73951707087957
 21
84.31968424605526
 31
0.0
 11
90.57109720262548
 21
84.19982348486978
 31
0.0
  0
SPLINE
  5
448
330
1F
100
AcDbEntity
  8
0
  6
Continuous
 62
     7
100
AcDbSpline
210
0.0
220
0.0
230
1.0
 70
     8
 71
     3
 72
     9
 73
     5
 74
     3
 42
0.000000001
 43
0.0000000001
 44
0.00000001
 40
0.0
 40
0.0
 40
0.0
 40
0.0
 40
0.1912052590812734
 40
0.3802777736713656
 40
0.3802777736713656
 40
0.3802777736713656
 40
0.3802777736713656
 10
92.09717624805535
 20
83.99257584068037
 30
0.0
 10
92.12328605517517
 20
83.93439302312943
 30
0.0
 10
92.17521441654677
 20
83.81867636404526
 30
0.0
 10
92.21630191654499
 20
83.6986827669437
 30
0.0
 10
92.23673043996871
 20
83.63902245008713
 30
0.0
 11
92.09717624805535
 21
83.99257584068037
 31
0.0
 11
92.17276495967971
 21
83.81694612254446
 31
0.0
 11
92.23673043996871
 21
83.63902245008713
 31
0.0
  0
SPLINE
  5
449
330
1F
100
AcDbEntity
  8
0
  6
Continuous
 62
     7
100
AcDbSpline
210
0.0
220
0.0
230
1.0
 70
     8
 71
     3
 72
     9
 73
     5
 74
     3
 42
0.000000001
 43
0.0000000001
 44
0.00000001
 40
0.0
 40
0.0
 40
0.0
 40
0.0
 40
0.1077730504632966
 40
0.21619899500972
 40
0.21619899500972
 40
0.21619899500972
 40
0.21619899500972
 10
92.23673043996871
 20
81.87125549712074
 30
0.0
 10
92.22532540809091
 20
81.83718224882016
 30
0.0
 10
92.20244623328293
 20
81.76882934159708
 30
0.0
 10
92.17597705750838
 20
81.70178477436008
 30
0.0
 10
92.1627024934204
 20
81.6681612611293
 30
0.0
 11
92.23673043996871
 21
81.87125549712074
 31
0.0
 11
92.20162324719334
 21
81.76936086792129
 31
0.0
 11
92.1627024934204
 21
81.6681612611293
 31
0.0
  0
SPLINE
  5
44A
330
1F
100
AcDbEntity
  8
0
  6
Continuous
 62
     7
100
AcDbSpline
210
0.0
220
0.0
230
1.0
 70
     8
 71
     3
 72
     9
 73
     5
 74
     3
 42
0.000000001
 43
0.0000000001
 44
0.00000001
 40
0.0
 40
0.0
 40
0.0
 40
0.0
 40
0.1890725145901458
 40
0.3802777736714677
 40
0.3802777736714677
 40
0.3802777736714677
 40
0.3802777736714677
 10
92.23673043996871
 20
81.30557007217153
 30
0.0
 10
92.21630191654496
 20
81.24590975531497
 30
0.0
 10
92.17521441654681
 20
81.12591615821331
 30
0.0
 10
92.12328605517513
 20
81.01019949912913
 30
0.0
 10
92.09717624805529
 20
80.9520166815782
 30
0.0
 11
92.23673043996871
 21
81.30557007217153
 31
0.0
 11
92.17276495967971
 21
81.12764639971414
 31
0.0
 11
92.09717624805529
 21
80.9520166815782
 31
0.0
  0
SPLINE
  5
44B
330
1F
100
AcDbEntity
  8
0
  6
Continuous
 62
     7
100
AcDbSpline
210
0.0
220
0.0
230
1.0
 70
     8
 71
     3
 72
     9
 73
     5
 74
     3
 42
0.000000001
 43
0.0000000001
 44
0.00000001
 40
0.0
 40
0.0
 40
0.0
 40
0.0
 40
0.0818495641759541
 40
0.1641224441635444
 40
0.1641224441635444
 40
0.1641224441635444
 40
0.1641224441635444
 10
92.1627024934204
 20
81.6681612611293
 30
0.0
 10
92.15229666749913
 20
81.64293732089679
 30
0.0
 10
92.1314311796275
 20
81.5923589932004
 30
0.0
 10
92.10861418174207
 20
81.54263048709662
 30
0.0
 10
92.09717624805535
 20
81.51770210652741
 30
0.0
 11
92.1627024934204
 21
81.6681612611293
 31
0.0
 11
92.13099964247138
 21
81.59270080513592
 31
0.0
 11
92.09717624805535
 21
81.51770210652741
 31
0.0
  0
SPLINE
  5
44C
330
1F
100
AcDbEntity
  8
0
  6
Continuous
 62
     7
100
AcDbSpline
210
0.0
220
0.0
230
1.0
 70
     8
 71
     3
 72
     9
 73
     5
 74
     3
 42
0.000000001
 43
0.0000000001
 44
0.00000001
 40
0.0
 40
0.0
 40
0.0
 40
0.0
 40
0.0822728799875748
 40
0.1641224441635158
 40
0.1641224441635158
 40
0.1641224441635158
 40
0.1641224441635158
 10
92.09717624805529
 20
83.42689041573114
 30
0.0
 10
92.10861418174204
 20
83.40196203516196
 30
0.0
 10
92.1314311796275
 20
83.3522335290582
 30
0.0
 10
92.15229666749912
 20
83.30165520136178
 30
0.0
 10
92.1627024934204
 20
83.2764312611293
 30
0.0
 11
92.09717624805529
 21
83.42689041573114
 31
0.0
 11
92.13099964247138
 21
83.35189171712267
 31
0.0
 11
92.1627024934204
 21
83.2764312611293
 31
0.0
  0
SPLINE
  5
44D
330
1F
100
AcDbEntity
  8
0
  6
Continuous
 62
     7
100
AcDbSpline
210
0.0
220
0.0
230
1.0
 70
     8
 71
     3
 72
     9
 73
     5
 74
     3
 42
0.000000001
 43
0.0000000001
 44
0.00000001
 40
0.0
 40
0.0
 40
0.0
 40
0.0
 40
0.1084259445464101
 40
0.2161989950097202
 40
0.2161989950097202
 40
0.2161989950097202
 40
0.2161989950097202
 10
92.1627024934204
 20
83.2764312611293
 30
0.0
 10
92.17597705750838
 20
83.24280774789855
 30
0.0
 10
92.20244623328293
 20
83.1757631806615
 30
0.0
 10
92.2253254080909
 20
83.10741027343843
 30
0.0
 10
92.23673043996871
 20
83.07333702513786
 30
0.0
 11
92.1627024934204
 21
83.2764312611293
 31
0.0
 11
92.20162324719334
 21
83.17523165433732
 31
0.0
 11
92.23673043996871
 21
83.07333702513786
 31
0.0
  0
SPLINE
  5
44E
330
1F
100
AcDbEntity
  8
0
  6
Continuous
 62
     7
100
AcDbSpline
210
0.0
220
0.0
230
1.0
 70
     8
 71
     3
 72
     9
 73
     5
 74
     3
 42
0.000000001
 43
0.0000000001
 44
0.00000001
 40
0.0
 40
0.0
 40
0.0
 40
0.0
 40
0.2832433754466935
 40
0.566486750893384
 40
0.566486750893384
 40
0.566486750893384
 40
0.566486750893384
 10
92.09717624805529
 20
83.42689041573114
 30
0.0
 10
92.10470635487374
 20
83.52117131971237
 30
0.0
 10
92.11976654856716
 20
83.70973312820574
 30
0.0
 10
92.1047063548738
 20
83.89829493669917
 30
0.0
 10
92.09717624805535
 20
83.99257584068037
 30
0.0
 11
92.09717624805529
 21
83.42689041573114
 31
0.0
 11
92.11223646172047
 21
83.70973312820576
 31
0.0
 11
92.09717624805535
 21
83.99257584068037
 31
0.0
  0
SPLINE
  5
44F
330
1F
100
AcDbEntity
  8
0
  6
Continuous
 62
     7
100
AcDbSpline
210
0.0
220
0.0
230
1.0
 70
     8
 71
     3
 72
    11
 73
     7
 74
     5
 42
0.000000001
 43
0.0000000001
 44
0.00000001
 40
0.0
 40
0.0
 40
0.0
 40
0.0
 40
0.2216200555798615
 40
0.4293654773714592
 40
0.6519739131343399
 40
0.8586410184122604
 40
0.8586410184122604
 40
0.8586410184122604
 40
0.8586410184122604
 10
91.27109720267413
 20
80.59972152470031
 30
0.0
 10
91.2108525133276
 20
80.64247488230659
 30
0.0
 10
91.09413479188589
 20
80.72530501430344
 30
0.0
 10
90.91694186954982
 20
80.85113294157642
 30
0.0
 10
90.74384313513286
 20
80.97411766803913
 30
0.0
 10
90.62723575569721
 20
81.05705135401489
 30
0.0
 10
90.57109720267408
 20
81.09697831411229
 30
0.0
 11
91.27109720267413
 21
80.59972152470031
 31
0.0
 11
91.09036983345871
 21
80.72799103413891
 31
0.0
 11
90.92098608935015
 21
80.848271155141
 31
0.0
 11
90.73952221816384
 21
80.97721059491285
 31
0.0
 11
90.57109720267408
 21
81.09697831411229
 31
0.0
  0
SPLINE
  5
450
330
1F
100
AcDbEntity
  8
0
  6
Continuous
 62
     7
100
AcDbSpline
210
0.0
220
0.0
230
1.0
 70
     8
 71
     3
 72
     9
 73
     5
 74
     3
 42
0.000000001
 43
0.0000000001
 44
0.00000001
 40
0.0
 40
0.0
 40
0.0
 40
0.0
 40
0.4206786595505464
 40
0.8549809765868901
 40
0.8549809765868901
 40
0.8549809765868901
 40
0.8549809765868901
 10
92.09717624805529
 20
80.9520166815782
 30
0.0
 10
92.03347531122338
 20
80.82673847824628
 30
0.0
 10
91.90401046867609
 20
80.57212495326678
 30
0.0
 10
91.73055100260324
 20
80.3451550310927
 30
0.0
 10
91.64243926996369
 20
80.22986175442814
 30
0.0
 11
92.09717624805529
 21
80.9520166815782
 31
0.0
 11
91.89542249579063
 21
80.58287448870439
 31
0.0
 11
91.64243926996369
 21
80.22986175442814
 31
0.0
  0
SPLINE
  5
451
330
1F
100
AcDbEntity
  8
0
  6
Continuous
 62
     7
100
AcDbSpline
210
0.0
220
0.0
230
1.0
 70
     8
 71
     3
 72
     9
 73
     5
 74
     3
 42
0.000000001
 43
0.0000000001
 44
0.00000001
 40
0.0
 40
0.0
 40
0.0
 40
0.0
 40
0.3051721720337169
 40
0.6093837263159014
 40
0.6093837263159014
 40
0.6093837263159014
 40
0.6093837263159014
 10
92.23673043996871
 20
83.07333702513786
 30
0.0
 10
92.25864576403639
 20
82.9739125118159
 30
0.0
 10
92.30240740769167
 20
82.77537644903427
 30
0.0
 10
92.32392123536914
 20
82.57321676483392
 30
0.0
 10
92.33466118239869
 20
82.4722962611293
 30
0.0
 11
92.23673043996871
 21
83.07333702513786
 31
0.0
 11
92.29689689908218
 21
82.77415471949917
 31
0.0
 11
92.33466118239869
 21
82.4722962611293
 31
0.0
  0
SPLINE
  5
452
330
1F
100
AcDbEntity
  8
0
  6
Continuous
 62
     7
100
AcDbSpline
210
0.0
220
0.0
230
1.0
 70
     8
 71
     3
 72
     9
 73
     5
 74
     3
 42
0.000000001
 43
0.0000000001
 44
0.00000001
 40
0.0
 40
0.0
 40
0.0
 40
0.0
 40
0.3042115542821845
 40
0.6093837263159014
 40
0.6093837263159014
 40
0.6093837263159014
 40
0.6093837263159014
 10
92.33466118239869
 20
82.4722962611293
 30
0.0
 10
92.32392123536917
 20
82.37137575742469
 30
0.0
 10
92.30240740769163
 20
82.16921607322433
 30
0.0
 10
92.25864576403639
 20
81.97068001044265
 30
0.0
 10
92.23673043996871
 20
81.87125549712074
 30
0.0
 11
92.33466118239869
 21
82.4722962611293
 31
0.0
 11
92.29689689908218
 21
82.17043780275944
 31
0.0
 11
92.23673043996871
 21
81.87125549712074
 31
0.0
  0
SPLINE
  5
453
330
1F
100
AcDbEntity
  8
0
  6
Continuous
 62
     7
100
AcDbSpline
210
0.0
220
0.0
230
1.0
 70
     8
 71
     3
 72
     9
 73
     5
 74
     3
 42
0.000000001
 43
0.0000000001
 44
0.00000001
 40
0.0
 40
0.0
 40
0.0
 40
0.0
 40
0.1902526066967033
 40
0.3762299641297087
 40
0.3762299641297087
 40
0.3762299641297087
 40
0.3762299641297087
 10
92.23673043996871
 20
83.63902245008713
 30
0.0
 10
92.25860082210474
 20
83.57934853893329
 30
0.0
 10
92.3018501083868
 20
83.46134166936058
 30
0.0
 10
92.32380733365535
 20
83.33759935450442
 30
0.0
 10
92.33466118239869
 20
83.2764312611293
 30
0.0
 11
92.23673043996871
 21
83.63902245008713
 31
0.0
 11
92.29689689908218
 21
83.4585340798921
 31
0.0
 11
92.33466118239869
 21
83.2764312611293
 31
0.0
  0
SPLINE
  5
454
330
1F
100
AcDbEntity
  8
0
  6
Continuous
 62
     7
100
AcDbSpline
210
0.0
220
0.0
230
1.0
 70
     8
 71
     3
 72
     9
 73
     5
 74
     3
 42
0.000000001
 43
0.0000000001
 44
0.00000001
 40
0.0
 40
0.0
 40
0.0
 40
0.0
 40
0.1859773574329746
 40
0.3762299641296555
 40
0.3762299641296555
 40
0.3762299641296555
 40
0.3762299641296555
 10
92.33466118239869
 20
81.6681612611293
 30
0.0
 10
92.32380733365537
 20
81.60699316775421
 30
0.0
 10
92.30185010838682
 20
81.48325085289801
 30
0.0
 10
92.25860082210475
 20
81.36524398332536
 30
0.0
 10
92.23673043996871
 20
81.30557007217153
 30
0.0
 11
92.33466118239869
 21
81.6681612611293
 31
0.0
 11
92.2968968990822
 21
81.48605844236653
 31
0.0
 11
92.23673043996871
 21
81.30557007217153
 31
0.0
  0
ARC
  5
455
102
{ACAD_REACTORS
330
489
102
}
330
1F
100
AcDbEntity
  8
1
  6
Continuous
 62
     7
100
AcDbCircle
 10
95.8381503443714
 20
6.41666666666663
 30
0.0
 40
0.0833333333333545
100
AcDbArc
 50
209.9999999999622
 51
330.0000000000231
  0
ARC
  5
456
102
{ACAD_REACTORS
330
48A
102
}
330
1F
100
AcDbEntity
  8
1
  6
Continuous
 62
     7
100
AcDbCircle
 10
94.6714836777047
 20
5.13501057401635
 30
0.0
 40
0.3333333333333002
100
AcDbArc
 50
180.0000000000104
 51
240.0183606311601
  0
ARC
  5
457
330
1F
100
AcDbEntity
  8
1
  6
Continuous
 62
     7
100
AcDbCircle
 10
91.67157624459145
 20
6.25
 30
0.0
 40
0.0833333333333132
100
AcDbArc
 50
119.9816393688962
 51
240.0183606311243
  0
ARC
  5
458
330
1F
100
AcDbEntity
  8
1
  6
Continuous
 62
     7
100
AcDbCircle
 10
100.0047244441514
 20
6.25
 30
0.0
 40
0.0833333333333364
100
AcDbArc
 50
299.9816393688419
 51
60.01836063113769
  0
ARC
  5
459
102
{ACAD_REACTORS
330
48C
102
}
330
1F
100
AcDbEntity
  8
1
  6
Continuous
 62
     7
100
AcDbCircle
 10
97.1714836777047
 20
7.46125008008369
 30
0.0
 40
0.1666666666667083
100
AcDbArc
 50
60.01836063113698
 51
180.0
  0
ARC
  5
45A
102
{ACAD_REACTORS
330
48C
102
}
330
1F
100
AcDbEntity
  8
1
  6
Continuous
 62
     7
100
AcDbCircle
 10
97.1714836777047
 20
5.03874991991631
 30
0.0
 40
0.1666666666666003
100
AcDbArc
 50
180.0
 51
299.981639368863
  0
MTEXT
  5
45C
330
1F
100
AcDbEntity
  8
1
 62
     7
100
AcDbMText
 10
18.00000000000005
 20
8.74999999999997
 30
0.0
 40
1.25
 41
0.0
 71
     5
 72
     1
  1
dimensions in mm
  7
CONVERTER_11
 73
     1
 44
0.60024009603842
  0
MTEXT
  5
45E
330
1F
100
AcDbEntity
  8
1
 62
     7
100
AcDbMText
 10
8.0
 20
75.7499999999999
 30
0.0
 40
2.0
 41
0.0
 71
     5
 72
     1
  1
Diritti riservati      All rights reserved
  7
CONVERTER_12
 11
0.0
 21
1.0
 31
0.0
 73
     1
 44
1.32052821128451
  0
MTEXT
  5
45F
330
1F
100
AcDbEntity
  8
1
 62
     7
100
AcDbMText
 10
11.00000000000006
 20
6.24999999999994
 30
0.0
 40
1.5
 41
0.0
 71
     4
 72
     1
  1
Date
  7
CONVERTER_12
 73
     1
 44
1.32052821128451
  0
MTEXT
  5
460
330
1F
100
AcDbEntity
  8
1
 62
     7
100
AcDbMText
 10
11.00000000000006
 20
3.74999999999994
 30
0.0
 40
1.5
 41
0.0
 71
     4
 72
     1
  1
Sign.
  7
CONVERTER_12
 73
     1
 44
1.32052821128451
  0
MTEXT
  5
461
330
1F
100
AcDbEntity
  8
1
 62
     7
100
AcDbMText
 10
84.8381503443714
 20
8.13031971037799
 30
0.0
 40
1.5
 41
0.0
 71
     5
 72
     1
  1
Scale
  7
CONVERTER_12
 73
     1
 44
1.32052821128451
  0
MTEXT
  5
463
330
1F
100
AcDbEntity
  8
1
 62
     7
100
AcDbMText
 10
40.91824122996526
 20
24.15777816542541
 30
0.0
 40
1.75
 41
0.0
 71
     2
 72
     1
  1
 
  7
CONVERTER_13
 73
     1
 44
1.32052821128451
  0
MTEXT
  5
464
330
1F
100
AcDbEntity
  8
1
 62
     7
100
AcDbMText
 10
84.8381503443714
 20
5.03031971037803
 30
0.0
 40
2.25
 41
0.0
 71
     5
 72
     1
  1
2:1
  7
CONVERTER_12
 73
     1
 44
1.32052821128451
  0
MTEXT
  5
465
330
1F
100
AcDbEntity
  8
1
 62
     7
100
AcDbMText
 10
16.30000000000005
 20
3.74999999999994
 30
0.0
 40
1.5
 41
0.0
 71
     4
 72
     1
  1
M.Pezzimenti
  7
CONVERTER_12
 73
     1
 44
1.32052821128451
  0
MTEXT
  5
466
330
1F
100
AcDbEntity
  8
1
 62
     7
100
AcDbMText
 10
16.30000000000005
 20
6.24999999999994
 30
0.0
 40
1.5
 41
0.0
 71
     4
 72
     1
  1
08/10/14
  7
CONVERTER_12
 73
     1
 44
1.32052821128451
  0
MTEXT
  5
467
330
1F
100
AcDbEntity
  8
1
 62
     7
100
AcDbMText
 10
28.63815034437141
 20
6.25
 30
0.0
 40
2.25
 41
0.0
 71
     4
 72
     1
  1
JKSM 04\PMale insert spring 4P +         10A 400V - JEI
  7
CONVERTER_12
 73
     1
 44
0.90036014405762
  0
DIMENSION
  5
472
330
1F
100
AcDbEntity
  8
1
100
AcDbDimension
  2
*D2
 10
22.9182404677623
 20
96.97229626112944
 30
0.0
 11
21.0932404677623
 21
81.22229626112943
 31
0.0
 70
    32
  1
<>
 71
     5
 42
-1.0
 53
90.0
  3
ME10_DIM_10
100
AcDbAlignedDimension
 13
32.79243893094117
 23
65.47229626112942
 33
0.0
 14
29.79243893094112
 24
96.97229626112944
 34
0.0
 50
90.0
100
AcDbRotatedDimension
  0
DIMENSION
  5
47D
330
1F
100
AcDbEntity
  8
1
100
AcDbDimension
  2
*D3
 10
29.79243893094112
 20
102.4
 30
0.0
 11
40.29243893094109
 21
104.15
 31
0.0
 70
    32
  1
<>
 71
     5
 42
-1.0
 53
0.00013888888889
  3
ME10_DIM_11
100
AcDbAlignedDimension
 13
50.79243893094106
 23
96.97229626112944
 33
0.0
 14
29.79243893094112
 24
96.97229626112944
 34
0.0
100
AcDbRotatedDimension
  0
DIMENSION
  5
488
330
1F
100
AcDbEntity
  8
1
100
AcDbDimension
  2
*D4
 10
90.09243926996362
 20
102.4
 30
0.0
 11
79.59243926996368
 21
104.15
 31
0.0
 70
    33
  1
<>
 71
     5
 42
-1.0
 53
0.00013888888889
  3
ME10_DIM_12
100
AcDbAlignedDimension
 13
69.09243926996373
 23
96.97229626112933
 33
0.0
 14
90.09243926996362
 24
96.97229626112933
 34
0.0
  0
HATCH
  5
489
330
1F
100
AcDbEntity
  8
1
  6
Continuous
 62
     7
100
AcDbHatch
 10
0.0
 20
0.0
 30
0.0
210
0.0
220
0.0
230
1.0
  2
SOLID
 70
     1
 71
     1
 91
        1
 92
        1
 93
       16
 72
     2
 10
96.53900057146706
 20
7.865608656017285
 40
0.1324831062376433
 50
210.0000000000284
 51
360.0
 73
     0
 72
     1
 10
96.6714836777047
 20
7.865608656017285
 11
96.6714836777047
 21
4.654134535300898
 72
     2
 10
96.5048170110381
 20
4.654134535300898
 40
0.1666666666666998
 50
0.0
 51
180.0
 73
     0
 72
     1
 10
96.3381503443714
 20
4.654134535300898
 11
96.3381503443714
 21
6.25
 72
     1
 10
96.3381503443714
 20
6.25
 11
96.3381503443714
 21
7.11602540378442
 72
     1
 10
96.3381503443714
 20
7.11602540378442
 11
95.9103191280201
 21
6.375
 72
     2
 10
95.8381503443714
 20
6.41666666666663
 40
0.0833333333333545
 50
29.99999999997686
 51
150.0000000000378
 73
     0
 72
     1
 10
95.76598156072265
 20
6.375
 11
95.3381503443714
 21
7.11602540378442
 72
     1
 10
95.3381503443714
 20
7.11602540378442
 11
95.3381503443714
 21
6.25
 72
     1
 10
95.3381503443714
 20
6.25
 11
95.3381503443714
 21
5.423792536316455
 72
     2
 10
95.1714836777047
 20
5.423792536316455
 40
0.166666666666643
 50
0.0
 51
180.0
 73
     0
 72
     1
 10
95.00481701103806
 20
5.423792536316455
 11
95.00481701103806
 21
6.25
 72
     1
 10
95.00481701103806
 20
6.25
 11
95.00481701103806
 21
7.865608656017285
 72
     2
 10
95.1373001172757
 20
7.865608656017285
 40
0.1324831062376427
 50
180.0
 51
329.9999999999808
 73
     0
 72
     1
 10
95.25203385284975
 20
7.931850209136145
 11
95.8381503443714
 21
6.91666666666663
 72
     1
 10
95.8381503443714
 20
6.91666666666663
 11
96.42426683589305
 21
7.931850209136145
 97
       16
330
64
330
3BF
330
63
330
65
330
3C0
330
66
330
5E
330
5D
330
455
330
5C
330
5B
330
67
330
3C1
330
68
330
3C2
330
69
 75
     0
 76
     1
 98
        1
 10
0.0
 20
0.0
  0
HATCH
  5
48A
330
1F
100
AcDbEntity
  8
1
  6
Continuous
 62
     7
100
AcDbHatch
 10
0.0
 20
0.0
 30
0.0
210
0.0
220
0.0
230
1.0
  2
SOLID
 70
     1
 71
     1
 91
        1
 92
        1
 93
        7
 72
     2
 10
94.50481701103806
 20
7.461250080083685
 40
0.166666666666643
 50
0.0
 51
180.0
 73
     1
 72
     1
 10
94.3381503443714
 20
7.461250080083685
 11
94.3381503443714
 21
5.13501057401629
 72
     2
 10
94.6714836777047
 20
5.13501057401635
 40
0.3333333333333002
 50
180.0000000000104
 51
240.0183606311601
 73
     1
 72
     1
 10
94.50490952654155
 20
4.846282045333453
 11
95.5881966021231
 21
4.221308732497903
 72
     2
 10
95.6714836777047
 20
4.365672996839351
 40
0.1666666666666783
 50
240.0183606311536
 51
420.0183606311367
 73
     1
 72
     1
 10
95.75477075328635
 20
4.510037261180798
 11
94.6714836777047
 21
5.13501057401635
 72
     1
 10
94.6714836777047
 20
5.13501057401635
 11
94.6714836777047
 21
7.461250080083685
 97
        7
330
3C3
330
6A
330
456
330
6D
330
3C4
330
6C
330
6B
 75
     0
 76
     1
 98
        1
 10
0.0
 20
0.0
  0
HATCH
  5
48B
330
1F
100
AcDbEntity
  8
1
  6
Continuous
 62
     7
100
AcDbHatch
 10
0.0
 20
0.0
 30
0.0
210
0.0
220
0.0
230
1.0
  2
SOLID
 70
     1
 71
     1
 91
        1
 92
        1
 93
        5
 72
     2
 10
93.8381503443714
 20
7.07663469546833
 40
0.1666666666666572
 50
0.0
 51
180.0
 73
     1
 72
     1
 10
93.6714836777047
 20
7.07663469546833
 11
93.6714836777047
 21
5.423365304531615
 72
     2
 10
93.8381503443714
 20
5.423365304531615
 40
0.1666666666666998
 50
180.0
 51
360.0
 73
     1
 72
     1
 10
94.00481701103806
 20
5.423365304531615
 11
94.00481701103806
 21
5.51962595863165
 72
     1
 10
94.00481701103806
 20
5.51962595863165
 11
94.00481701103806
 21
7.07663469546833
 97
        5
330
3C5
330
70
330
3C6
330
6F
330
6E
 75
     0
 76
     1
 98
        1
 10
0.0
 20
0.0
  0
HATCH
  5
48C
330
1F
100
AcDbEntity
  8
1
  6
Continuous
 62
     7
100
AcDbHatch
 10
0.0
 20
0.0
 30
0.0
210
0.0
220
0.0
230
1.0
  2
SOLID
 70
     1
 71
     1
 91
        1
 92
        1
 93
       14
 72
     2
 10
97.1714836777047
 20
7.461250080083685
 40
0.1666666666667083
 50
60.01836063113698
 51
180.0
 73
     1
 72
     1
 10
97.0048170110381
 20
7.461250080083685
 11
97.0048170110381
 21
5.038749919916315
 72
     2
 10
97.1714836777047
 20
5.038749919916315
 40
0.1666666666666003
 50
180.0
 51
299.981639368863
 73
     1
 72
     1
 10
97.25477075328635
 20
4.894385655574865
 11
97.92143741995295
 21
5.279001040190165
 72
     2
 10
97.8381503443714
 20
5.423365304531615
 40
0.1666666666666586
 50
299.9816393688334
 51
479.9816393688365
 73
     1
 72
     1
 10
97.7548632687898
 20
5.56772956887312
 11
97.3381503443714
 21
5.32731826632397
 72
     1
 10
97.3381503443714
 20
5.32731826632397
 11
97.3381503443714
 21
6.083333333333315
 72
     1
 10
97.3381503443714
 20
6.083333333333315
 11
97.8381503443714
 21
6.083333333333315
 72
     2
 10
97.8381503443714
 20
6.25
 40
0.1666666666666847
 50
270.0
 51
450.0
 73
     1
 72
     1
 10
97.8381503443714
 20
6.41666666666663
 11
97.3381503443714
 21
6.41666666666663
 72
     1
 10
97.3381503443714
 20
6.41666666666663
 11
97.3381503443714
 21
7.17268173367597
 72
     1
 10
97.3381503443714
 20
7.17268173367597
 11
97.7548632687898
 21
6.93227043112688
 72
     2
 10
97.8381503443714
 20
7.07663469546833
 40
0.1666666666666806
 50
240.018360631154
 51
420.0183606311564
 73
     1
 72
     1
 10
97.92143741995295
 20
7.22099895980972
 11
97.25477075328635
 21
7.605614344425135
 97
       14
330
3C7
330
72
330
73
330
74
330
3C8
330
75
330
76
330
77
330
3C9
330
78
330
45A
330
5A
330
459
330
71
 75
     0
 76
     1
 98
        1
 10
0.0
 20
0.0
  0
ENDSEC
  0
SECTION
  2
OBJECTS
  0
DICTIONARY
  5
C
330
0
100
AcDbDictionary
281
     1
  3
ACAD_GROUP
350
D
  3
ACAD_LAYOUT
350
1A
  3
ACAD_MATERIAL
350
3B
  3
ACAD_MLEADERSTYLE
350
48F
  3
ACAD_MLINESTYLE
350
17
  3
ACAD_PLOTSETTINGS
350
19
  3
ACAD_PLOTSTYLENAME
350
E
  3
ACAD_VISUALSTYLE
350
2A
  3
AcDbVariableDictionary
350
48D
  0
DICTIONARY
  5
D
102
{ACAD_REACTORS
330
C
102
}
330
C
100
AcDbDictionary
281
     1
  0
DICTIONARY
  5
1A
102
{ACAD_REACTORS
330
C
102
}
330
C
100
AcDbDictionary
281
     1
  3
Layout1
350
1E
  3
Layout2
350
26
  3
Model
350
22
  0
DICTIONARY
  5
3B
102
{ACAD_REACTORS
330
C
102
}
330
C
100
AcDbDictionary
281
     1
  3
ByBlock
350
3D
  3
ByLayer
350
3C
  3
Global
350
3E
  0
DICTIONARY
  5
48F
102
{ACAD_REACTORS
330
C
102
}
330
C
100
AcDbDictionary
281
     1
  0
DICTIONARY
  5
17
102
{ACAD_REACTORS
330
C
102
}
330
C
100
AcDbDictionary
281
     1
  3
Standard
350
18
  0
DICTIONARY
  5
19
102
{ACAD_REACTORS
330
C
102
}
330
C
100
AcDbDictionary
281
     1
  0
ACDBDICTIONARYWDFLT
  5
E
102
{ACAD_REACTORS
330
C
102
}
330
C
100
AcDbDictionary
281
     1
  3
Normal
350
F
100
AcDbDictionaryWithDefault
340
F
  0
DICTIONARY
  5
2A
102
{ACAD_REACTORS
330
C
102
}
330
C
100
AcDbDictionary
281
     1
  3
2dWireframe
350
2F
  3
3D Hidden
350
31
  3
3dWireframe
350
30
  3
Basic
350
32
  3
Brighten
350
36
  3
ColorChange
350
3A
  3
Conceptual
350
34
  3
Dim
350
35
  3
Facepattern
350
39
  3
Flat
350
2B
  3
FlatWithEdges
350
2C
  3
Gouraud
350
2D
  3
GouraudWithEdges
350
2E
  3
Linepattern
350
38
  3
Realistic
350
33
  3
Thicken
350
37
  0
DICTIONARY
  5
48D
102
{ACAD_REACTORS
330
C
102
}
330
C
100
AcDbDictionary
281
     1
  3
DIMASSOC
350
490
  3
HIDETEXT
350
491
  0
LAYOUT
  5
1E
102
{ACAD_REACTORS
330
1A
102
}
330
1A
100
AcDbPlotSettings
  1

  2
none_device
  4

  6

 40
0.0
 41
0.0
 42
0.0
 43
0.0
 44
0.0
 45
0.0
 46
0.0
 47
0.0
 48
0.0
 49
0.0
140
0.0
141
0.0
142
1.0
143
1.0
 70
   688
 72
     0
 73
     0
 74
     5
  7

 75
    16
147
1.0
148
0.0
149
0.0
100
AcDbLayout
  1
Layout1
 70
     1
 71
     1
 10
0.0
 20
0.0
 11
12.0
 21
9.0
 12
0.0
 22
0.0
 32
0.0
 14
1.00000000000000E+20
 24
1.00000000000000E+20
 34
1.00000000000000E+20
 15
-1.00000000000000E+20
 25
-1.00000000000000E+20
 35
-1.00000000000000E+20
146
0.0
 13
0.0
 23
0.0
 33
0.0
 16
1.0
 26
0.0
 36
0.0
 17
0.0
 27
1.0
 37
0.0
 76
     0
330
1B
  0
LAYOUT
  5
26
102
{ACAD_REACTORS
330
1A
102
}
330
1A
100
AcDbPlotSettings
  1

  2
none_device
  4

  6

 40
0.0
 41
0.0
 42
0.0
 43
0.0
 44
0.0
 45
0.0
 46
0.0
 47
0.0
 48
0.0
 49
0.0
140
0.0
141
0.0
142
1.0
143
1.0
 70
   688
 72
     0
 73
     0
 74
     5
  7

 75
    16
147
1.0
148
0.0
149
0.0
100
AcDbLayout
  1
Layout2
 70
     1
 71
     2
 10
0.0
 20
0.0
 11
0.0
 21
0.0
 12
0.0
 22
0.0
 32
0.0
 14
0.0
 24
0.0
 34
0.0
 15
0.0
 25
0.0
 35
0.0
146
0.0
 13
0.0
 23
0.0
 33
0.0
 16
1.0
 26
0.0
 36
0.0
 17
0.0
 27
1.0
 37
0.0
 76
     0
330
23
  0
LAYOUT
  5
22
102
{ACAD_REACTORS
330
1A
102
}
330
1A
100
AcDbPlotSettings
  1

  2
none_device
  4

  6

 40
0.0
 41
0.0
 42
0.0
 43
0.0
 44
0.0
 45
0.0
 46
0.0
 47
0.0
 48
0.0
 49
0.0
140
0.0
141
0.0
142
1.0
143
1.0
 70
  1712
 72
     0
 73
     0
 74
     0
  7

 75
     0
147
1.0
148
0.0
149
0.0
100
AcDbLayout
  1
Model
 70
     1
 71
     0
 10
0.0
 20
0.0
 11
12.0
 21
9.0
 12
0.0
 22
0.0
 32
0.0
 14
0.0
 24
0.0
 34
0.0
 15
105.0000000000001
 25
148.5000000000001
 35
0.0
146
0.0
 13
0.0
 23
0.0
 33
0.0
 16
1.0
 26
0.0
 36
0.0
 17
0.0
 27
1.0
 37
0.0
 76
     0
330
1F
331
29
  0
MATERIAL
  5
3D
102
{ACAD_REACTORS
330
3B
102
}
102
{ACAD_XDICTIONARY
360
4B4
102
}
330
3B
100
AcDbMaterial
  1
ByBlock
  0
MATERIAL
  5
3C
102
{ACAD_REACTORS
330
3B
102
}
102
{ACAD_XDICTIONARY
360
4B2
102
}
330
3B
100
AcDbMaterial
  1
ByLayer
  0
MATERIAL
  5
3E
102
{ACAD_REACTORS
330
3B
102
}
102
{ACAD_XDICTIONARY
360
4B6
102
}
330
3B
100
AcDbMaterial
  1
Global
  0
MLINESTYLE
  5
18
102
{ACAD_REACTORS
330
17
102
}
330
17
100
AcDbMlineStyle
  2
Standard
 70
     0
  3

 62
   256
 51
90.0
 52
90.0
 71
     2
 49
0.5
 62
   256
  6
BYLAYER
 49
-0.5
 62
   256
  6
BYLAYER
  0
ACDBPLACEHOLDER
  5
F
102
{ACAD_REACTORS
330
E
102
}
330
E
  0
VISUALSTYLE
  5
2F
102
{ACAD_REACTORS
330
2A
102
}
102
{ACAD_XDICTIONARY
360
49A
102
}
330
2A
100
AcDbVisualStyle
  2
2dWireframe
 70
     4
 71
     0
 72
     2
 73
     0
 90
        0
 40
-0.6
 41
-30.0
 62
     5
 63
     7
 74
     1
 91
        4
 64
     7
 65
   257
 75
     1
175
     1
 42
1.0
 92
        0
 66
   257
 43
1.0
 76
     1
 77
     6
 78
     2
 67
     7
 79
     5
170
     0
171
     0
290
     0
174
     0
 93
        1
 44
0.0
173
     0
291
     0
 45
0.0
1001
ACAD
1000
AcDbSavedByObjectVersion
1070
     0
  0
VISUALSTYLE
  5
31
102
{ACAD_REACTORS
330
2A
102
}
102
{ACAD_XDICTIONARY
360
49E
102
}
330
2A
100
AcDbVisualStyle
  2
3D Hidden
 70
     6
 71
     1
 72
     2
 73
     2
 90
        0
 40
-0.6
 41
-30.0
 62
     5
 63
     7
 74
     2
 91
        2
 64
     7
 65
   257
 75
     2
175
     1
 42
40.0
 92
        0
 66
   257
 43
1.0
 76
     1
 77
     6
 78
     2
 67
     7
 79
     3
170
     0
171
     0
290
     0
174
     0
 93
        1
 44
0.0
173
     0
291
     0
 45
0.0
1001
ACAD
1000
AcDbSavedByObjectVersion
1070
     0
  0
VISUALSTYLE
  5
30
102
{ACAD_REACTORS
330
2A
102
}
102
{ACAD_XDICTIONARY
360
49C
102
}
330
2A
100
AcDbVisualStyle
  2
3dWireframe
 70
     5
 71
     0
 72
     2
 73
     0
 90
        0
 40
-0.6
 41
-30.0
 62
     5
 63
     7
 74
     1
 91
        4
 64
     7
 65
   257
 75
     1
175
     1
 42
1.0
 92
        0
 66
   257
 43
1.0
 76
     1
 77
     6
 78
     2
 67
     7
 79
     5
170
     0
171
     0
290
     0
174
     0
 93
        1
 44
0.0
173
     0
291
     0
 45
0.0
1001
ACAD
1000
AcDbSavedByObjectVersion
1070
     0
  0
VISUALSTYLE
  5
32
102
{ACAD_REACTORS
330
2A
102
}
102
{ACAD_XDICTIONARY
360
4A0
102
}
330
2A
100
AcDbVisualStyle
  2
Basic
 70
     7
 71
     1
 72
     0
 73
     1
 90
        0
 40
-0.6
 41
-30.0
 62
     5
 63
     7
 74
     0
 91
        4
 64
     7
 65
   257
 75
     1
175
     1
 42
1.0
 92
        8
 66
     7
 43
1.0
 76
     1
 77
     6
 78
     2
 67
     7
 79
     5
170
     0
171
     0
290
     0
174
     0
 93
        1
 44
0.0
173
     0
291
     1
 45
0.0
1001
ACAD
1000
AcDbSavedByObjectVersion
1070
     0
  0
VISUALSTYLE
  5
36
102
{ACAD_REACTORS
330
2A
102
}
102
{ACAD_XDICTIONARY
360
4A8
102
}
330
2A
100
AcDbVisualStyle
  2
Brighten
 70
    12
 71
     2
 72
     2
 73
     0
 90
        0
 40
-0.6
 41
-30.0
 62
     5
 63
     7
 74
     1
 91
        4
 64
     7
 65
   257
 75
     1
175
     1
 42
1.0
 92
        8
 66
     7
 43
1.0
 76
     1
 77
     6
 78
     2
 67
     7
 79
     5
170
     0
171
     0
290
     0
174
     0
 93
        1
 44
50.0
173
     0
291
     1
 45
0.0
1001
ACAD
1000
AcDbSavedByObjectVersion
1070
     0
  0
VISUALSTYLE
  5
3A
102
{ACAD_REACTORS
330
2A
102
}
102
{ACAD_XDICTIONARY
360
4B0
102
}
330
2A
100
AcDbVisualStyle
  2
ColorChange
 70
    16
 71
     2
 72
     2
 73
     3
 90
        0
 40
-0.6
 41
-30.0
 62
     5
 63
     8
 74
     1
 91
        4
 64
     7
 65
   257
 75
     1
175
     1
 42
1.0
 92
        8
 66
     8
 43
1.0
 76
     1
 77
     6
 78
     2
 67
     7
 79
     5
170
     0
171
     0
290
     0
174
     0
 93
        1
 44
0.0
173
     0
291
     1
 45
0.0
1001
ACAD
1000
AcDbSavedByObjectVersion
1070
     0
  0
VISUALSTYLE
  5
34
102
{ACAD_REACTORS
330
2A
102
}
102
{ACAD_XDICTIONARY
360
4A4
102
}
330
2A
100
AcDbVisualStyle
  2
Conceptual
 70
     9
 71
     3
 72
     2
 73
     0
 90
        0
 40
-0.6
 41
-30.0
 62
     5
 63
     7
 74
     2
 91
        2
 64
     7
 65
   257
 75
     1
175
     1
 42
40.0
 92
        8
 66
     7
 43
1.0
 76
     1
 77
     6
 78
     2
 67
     7
 79
     3
170
     0
171
     0
290
     0
174
     0
 93
        1
 44
0.0
173
     0
291
     0
 45
0.0
1001
ACAD
1000
AcDbSavedByObjectVersion
1070
     0
  0
VISUALSTYLE
  5
35
102
{ACAD_REACTORS
330
2A
102
}
102
{ACAD_XDICTIONARY
360
4A6
102
}
330
2A
100
AcDbVisualStyle
  2
Dim
 70
    11
 71
     2
 72
     2
 73
     0
 90
        0
 40
-0.6
 41
-30.0
 62
     5
 63
     7
 74
     1
 91
        4
 64
     7
 65
   257
 75
     1
175
     1
 42
1.0
 92
        8
 66
     7
 43
1.0
 76
     1
 77
     6
 78
     2
 67
     7
 79
     5
170
     0
171
     0
290
     0
174
     0
 93
        1
 44
-50.0
173
     0
291
     1
 45
0.0
1001
ACAD
1000
AcDbSavedByObjectVersion
1070
     0
  0
VISUALSTYLE
  5
39
102
{ACAD_REACTORS
330
2A
102
}
102
{ACAD_XDICTIONARY
360
4AE
102
}
330
2A
100
AcDbVisualStyle
  2
Facepattern
 70
    15
 71
     2
 72
     2
 73
     0
 90
        0
 40
-0.6
 41
-30.0
 62
     5
 63
     7
 74
     1
 91
        4
 64
     7
 65
   257
 75
     1
175
     1
 42
1.0
 92
        8
 66
     7
 43
1.0
 76
     1
 77
     6
 78
     2
 67
     7
 79
     5
170
     0
171
     0
290
     0
174
     0
 93
        1
 44
0.0
173
     0
291
     1
 45
0.0
1001
ACAD
1000
AcDbSavedByObjectVersion
1070
     0
  0
VISUALSTYLE
  5
2B
102
{ACAD_REACTORS
330
2A
102
}
102
{ACAD_XDICTIONARY
360
492
102
}
330
2A
100
AcDbVisualStyle
  2
Flat
 70
     0
 71
     2
 72
     1
 73
     1
 90
        2
 40
-0.6
 41
30.0
 62
     5
 63
     7
 74
     0
 91
        4
 64
     7
 65
   257
 75
     1
175
     1
 42
1.0
 92
        8
 66
     7
 43
1.0
 76
     1
 77
     6
 78
     2
 67
     7
 79
     5
170
     0
171
     0
290
     0
174
     0
 93
       13
 44
0.0
173
     0
291
     1
 45
0.0
1001
ACAD
1000
AcDbSavedByObjectVersion
1070
     0
  0
VISUALSTYLE
  5
2C
102
{ACAD_REACTORS
330
2A
102
}
102
{ACAD_XDICTIONARY
360
494
102
}
330
2A
100
AcDbVisualStyle
  2
FlatWithEdges
 70
     1
 71
     2
 72
     1
 73
     1
 90
        2
 40
-0.6
 41
30.0
 62
     5
 63
     7
 74
     1
 91
        4
 64
     7
 65
   257
 75
     1
175
     1
 42
1.0
 92
        0
 66
   257
 43
1.0
 76
     1
 77
     6
 78
     2
 67
     7
 79
     5
170
     0
171
     0
290
     0
174
     0
 93
       13
 44
0.0
173
     0
291
     1
 45
0.0
1001
ACAD
1000
AcDbSavedByObjectVersion
1070
     0
  0
VISUALSTYLE
  5
2D
102
{ACAD_REACTORS
330
2A
102
}
102
{ACAD_XDICTIONARY
360
496
102
}
330
2A
100
AcDbVisualStyle
  2
Gouraud
 70
     2
 71
     2
 72
     2
 73
     1
 90
        2
 40
-0.6
 41
30.0
 62
     5
 63
     7
 74
     0
 91
        4
 64
     7
 65
   257
 75
     1
175
     1
 42
1.0
 92
        0
 66
     7
 43
1.0
 76
     1
 77
     6
 78
     2
 67
     7
 79
     5
170
     0
171
     0
290
     0
174
     0
 93
       13
 44
0.0
173
     0
291
     1
 45
0.0
1001
ACAD
1000
AcDbSavedByObjectVersion
1070
     0
  0
VISUALSTYLE
  5
2E
102
{ACAD_REACTORS
330
2A
102
}
102
{ACAD_XDICTIONARY
360
498
102
}
330
2A
100
AcDbVisualStyle
  2
GouraudWithEdges
 70
     3
 71
     2
 72
     2
 73
     1
 90
        2
 40
-0.6
 41
30.0
 62
     5
 63
     7
 74
     1
 91
        4
 64
     7
 65
   257
 75
     1
175
     1
 42
1.0
 92
        0
 66
   257
 43
1.0
 76
     1
 77
     6
 78
     2
 67
     7
 79
     5
170
     0
171
     0
290
     0
174
     0
 93
       13
 44
0.0
173
     0
291
     1
 45
0.0
1001
ACAD
1000
AcDbSavedByObjectVersion
1070
     0
  0
VISUALSTYLE
  5
38
102
{ACAD_REACTORS
330
2A
102
}
102
{ACAD_XDICTIONARY
360
4AC
102
}
330
2A
100
AcDbVisualStyle
  2
Linepattern
 70
    14
 71
     2
 72
     2
 73
     0
 90
        0
 40
-0.6
 41
-30.0
 62
     5
 63
     7
 74
     1
 91
        4
 64
     7
 65
   257
 75
     7
175
     7
 42
1.0
 92
        8
 66
     7
 43
1.0
 76
     1
 77
     6
 78
     2
 67
     7
 79
     5
170
     0
171
     0
290
     0
174
     0
 93
        1
 44
0.0
173
     0
291
     1
 45
0.0
1001
ACAD
1000
AcDbSavedByObjectVersion
1070
     0
  0
VISUALSTYLE
  5
33
102
{ACAD_REACTORS
330
2A
102
}
102
{ACAD_XDICTIONARY
360
4A2
102
}
330
2A
100
AcDbVisualStyle
  2
Realistic
 70
     8
 71
     2
 72
     2
 73
     0
 90
        0
 40
-0.6
 41
-30.0
 62
     5
 63
     7
 74
     1
 91
        0
 64
     7
 65
   257
 75
     1
175
     1
 42
1.0
 92
        8
 66
     8
 43
1.0
 76
     1
 77
     6
 78
     2
 67
     7
 79
     5
170
     0
171
     0
290
     0
174
     0
 93
       13
 44
0.0
173
     0
291
     0
 45
0.0
1001
ACAD
1000
AcDbSavedByObjectVersion
1070
     0
  0
VISUALSTYLE
  5
37
102
{ACAD_REACTORS
330
2A
102
}
102
{ACAD_XDICTIONARY
360
4AA
102
}
330
2A
100
AcDbVisualStyle
  2
Thicken
 70
    13
 71
     2
 72
     2
 73
     0
 90
        0
 40
-0.6
 41
-30.0
 62
     5
 63
     7
 74
     1
 91
        4
 64
     7
 65
   257
 75
     1
175
     1
 42
1.0
 92
       12
 66
     7
 43
1.0
 76
     1
 77
     6
 78
     2
 67
     7
 79
     5
170
     0
171
     0
290
     0
174
     0
 93
        1
 44
0.0
173
     0
291
     1
 45
0.0
1001
ACAD
1000
AcDbSavedByObjectVersion
1070
     0
  0
DICTIONARYVAR
  5
490
102
{ACAD_REACTORS
330
48D
102
}
330
48D
100
DictionaryVariables
280
     0
  1
2
  0
DICTIONARYVAR
  5
491
102
{ACAD_REACTORS
330
48D
102
}
330
48D
100
DictionaryVariables
280
     0
  1
1
  0
DICTIONARY
  5
4B4
330
3D
100
AcDbDictionary
280
     1
281
     1
  3
ACAD_XREC_ROUNDTRIP
360
4B5
  0
DICTIONARY
  5
4B2
330
3C
100
AcDbDictionary
280
     1
281
     1
  3
ACAD_XREC_ROUNDTRIP
360
4B3
  0
DICTIONARY
  5
4B6
330
3E
100
AcDbDictionary
280
     1
281
     1
  3
ACAD_XREC_ROUNDTRIP
360
4B7
  0
DICTIONARY
  5
49A
330
2F
100
AcDbDictionary
280
     1
281
     1
  3
ACAD_XREC_ROUNDTRIP
360
49B
  0
DICTIONARY
  5
49E
330
31
100
AcDbDictionary
280
     1
281
     1
  3
ACAD_XREC_ROUNDTRIP
360
49F
  0
DICTIONARY
  5
49C
330
30
100
AcDbDictionary
280
     1
281
     1
  3
ACAD_XREC_ROUNDTRIP
360
49D
  0
DICTIONARY
  5
4A0
330
32
100
AcDbDictionary
280
     1
281
     1
  3
ACAD_XREC_ROUNDTRIP
360
4A1
  0
DICTIONARY
  5
4A8
330
36
100
AcDbDictionary
280
     1
281
     1
  3
ACAD_XREC_ROUNDTRIP
360
4A9
  0
DICTIONARY
  5
4B0
330
3A
100
AcDbDictionary
280
     1
281
     1
  3
ACAD_XREC_ROUNDTRIP
360
4B1
  0
DICTIONARY
  5
4A4
330
34
100
AcDbDictionary
280
     1
281
     1
  3
ACAD_XREC_ROUNDTRIP
360
4A5
  0
DICTIONARY
  5
4A6
330
35
100
AcDbDictionary
280
     1
281
     1
  3
ACAD_XREC_ROUNDTRIP
360
4A7
  0
DICTIONARY
  5
4AE
330
39
100
AcDbDictionary
280
     1
281
     1
  3
ACAD_XREC_ROUNDTRIP
360
4AF
  0
DICTIONARY
  5
492
330
2B
100
AcDbDictionary
280
     1
281
     1
  3
ACAD_XREC_ROUNDTRIP
360
493
  0
DICTIONARY
  5
494
330
2C
100
AcDbDictionary
280
     1
281
     1
  3
ACAD_XREC_ROUNDTRIP
360
495
  0
DICTIONARY
  5
496
330
2D
100
AcDbDictionary
280
     1
281
     1
  3
ACAD_XREC_ROUNDTRIP
360
497
  0
DICTIONARY
  5
498
330
2E
100
AcDbDictionary
280
     1
281
     1
  3
ACAD_XREC_ROUNDTRIP
360
499
  0
DICTIONARY
  5
4AC
330
38
100
AcDbDictionary
280
     1
281
     1
  3
ACAD_XREC_ROUNDTRIP
360
4AD
  0
DICTIONARY
  5
4A2
330
33
100
AcDbDictionary
280
     1
281
     1
  3
ACAD_XREC_ROUNDTRIP
360
4A3
  0
DICTIONARY
  5
4AA
330
37
100
AcDbDictionary
280
     1
281
     1
  3
ACAD_XREC_ROUNDTRIP
360
4AB
  0
XRECORD
  5
4B5
102
{ACAD_REACTORS
330
4B4
102
}
330
4B4
100
AcDbXrecord
280
     1
102
MATERIAL
148
0.0
149
0.0
149
0.0
 93
        0
 94
      127
282
     0
 72
     1
 77
     1
171
     1
175
     1
179
     1
273
     0
  0
XRECORD
  5
4B3
102
{ACAD_REACTORS
330
4B2
102
}
330
4B2
100
AcDbXrecord
280
     1
102
MATERIAL
148
0.0
149
0.0
149
0.0
 93
        0
 94
      127
282
     0
 72
     1
 77
     1
171
     1
175
     1
179
     1
273
     0
  0
XRECORD
  5
4B7
102
{ACAD_REACTORS
330
4B6
102
}
330
4B6
100
AcDbXrecord
280
     1
102
MATERIAL
148
0.0
149
0.0
149
0.0
 93
        0
 94
      127
282
     0
 72
     1
 77
     1
171
     1
175
     1
179
     1
273
     0
  0
XRECORD
  5
49B
102
{ACAD_REACTORS
330
49A
102
}
330
49A
100
AcDbXrecord
280
     1
102
RTVSPropertyOp0
 70
     1
102
RTVSPropertyOp1
 70
     1
102
RTVSPropertyOp2
 70
     1
102
RTVSPropertyOp3
 70
     1
102
RTVSPropertyOp4
 70
     1
102
RTVSPropertyOp5
 70
     1
102
RTVSPropertyOp6
 70
     1
102
RTVSPropertyOp7
 70
     1
102
RTVSPropertyOp8
 70
     1
102
RTVSPropertyOp9
 70
     1
102
RTVSPropertyOp10
 70
     1
102
RTVSPropertyOp11
 70
     1
102
RTVSPropertyOp12
 70
     1
102
RTVSPropertyOp13
 70
     1
102
RTVSPropertyOp14
 70
     1
102
RTVSPropertyOp15
 70
     1
102
RTVSPropertyOp16
 70
     1
102
RTVSPropertyOp17
 70
     1
102
RTVSPropertyOp18
 70
     1
102
RTVSPropertyOp19
 70
     1
102
RTVSPropertyOp20
 70
     1
102
RTVSPropertyOp21
 70
     1
102
RTVSPropertyOp22
 70
     1
102
RTVSPropertyOp23
 70
     1
102
RTVSPropertyOp24
 70
     1
102
RTVSPropertyOp25
 70
     1
102
RTVSPropertyOp26
 70
     1
102
RTVSPropertyOp27
 70
     1
102
RTVSPropertyOp28
 70
     1
102
RTVSPropertyOp29
 70
     1
102
RTVSPropertyOp30
 70
     1
102
RTVSPropertyOp31
 70
     1
102
RTVSPropertyOp32
 70
     1
  0
XRECORD
  5
49F
102
{ACAD_REACTORS
330
49E
102
}
330
49E
100
AcDbXrecord
280
     1
102
RTVSPropertyOp0
 70
     1
102
RTVSPropertyOp1
 70
     1
102
RTVSPropertyOp2
 70
     1
102
RTVSPropertyOp3
 70
     1
102
RTVSPropertyOp4
 70
     1
102
RTVSPropertyOp5
 70
     1
102
RTVSPropertyOp6
 70
     1
102
RTVSPropertyOp7
 70
     1
102
RTVSPropertyOp8
 70
     1
102
RTVSPropertyOp9
 70
     1
102
RTVSPropertyOp10
 70
     1
102
RTVSPropertyOp11
 70
     1
102
RTVSPropertyOp12
 70
     1
102
RTVSPropertyOp13
 70
     1
102
RTVSPropertyOp14
 70
     1
102
RTVSPropertyOp15
 70
     1
102
RTVSPropertyOp16
 70
     1
102
RTVSPropertyOp17
 70
     1
102
RTVSPropertyOp18
 70
     1
102
RTVSPropertyOp19
 70
     1
102
RTVSPropertyOp20
 70
     1
102
RTVSPropertyOp21
 70
     1
102
RTVSPropertyOp22
 70
     1
102
RTVSPropertyOp23
 70
     1
102
RTVSPropertyOp24
 70
     1
102
RTVSPropertyOp25
 70
     1
102
RTVSPropertyOp26
 70
     1
102
RTVSPropertyOp27
 70
     1
102
RTVSPropertyOp28
 70
     1
102
RTVSPropertyOp29
 70
     1
102
RTVSPropertyOp30
 70
     1
102
RTVSPropertyOp31
 70
     1
102
RTVSPropertyOp32
 70
     1
  0
XRECORD
  5
49D
102
{ACAD_REACTORS
330
49C
102
}
330
49C
100
AcDbXrecord
280
     1
102
RTVSPropertyOp0
 70
     1
102
RTVSPropertyOp1
 70
     1
102
RTVSPropertyOp2
 70
     1
102
RTVSPropertyOp3
 70
     1
102
RTVSPropertyOp4
 70
     1
102
RTVSPropertyOp5
 70
     1
102
RTVSPropertyOp6
 70
     1
102
RTVSPropertyOp7
 70
     1
102
RTVSPropertyOp8
 70
     1
102
RTVSPropertyOp9
 70
     1
102
RTVSPropertyOp10
 70
     1
102
RTVSPropertyOp11
 70
     1
102
RTVSPropertyOp12
 70
     1
102
RTVSPropertyOp13
 70
     1
102
RTVSPropertyOp14
 70
     1
102
RTVSPropertyOp15
 70
     1
102
RTVSPropertyOp16
 70
     1
102
RTVSPropertyOp17
 70
     1
102
RTVSPropertyOp18
 70
     1
102
RTVSPropertyOp19
 70
     1
102
RTVSPropertyOp20
 70
     1
102
RTVSPropertyOp21
 70
     1
102
RTVSPropertyOp22
 70
     1
102
RTVSPropertyOp23
 70
     1
102
RTVSPropertyOp24
 70
     1
102
RTVSPropertyOp25
 70
     1
102
RTVSPropertyOp26
 70
     1
102
RTVSPropertyOp27
 70
     1
102
RTVSPropertyOp28
 70
     1
102
RTVSPropertyOp29
 70
     1
102
RTVSPropertyOp30
 70
     1
102
RTVSPropertyOp31
 70
     1
102
RTVSPropertyOp32
 70
     1
  0
XRECORD
  5
4A1
102
{ACAD_REACTORS
330
4A0
102
}
330
4A0
100
AcDbXrecord
280
     1
102
RTVSPropertyOp0
 70
     1
102
RTVSPropertyOp1
 70
     1
102
RTVSPropertyOp2
 70
     1
102
RTVSPropertyOp3
 70
     1
102
RTVSPropertyOp4
 70
     1
102
RTVSPropertyOp5
 70
     1
102
RTVSPropertyOp6
 70
     1
102
RTVSPropertyOp7
 70
     1
102
RTVSPropertyOp8
 70
     1
102
RTVSPropertyOp9
 70
     1
102
RTVSPropertyOp10
 70
     1
102
RTVSPropertyOp11
 70
     1
102
RTVSPropertyOp12
 70
     1
102
RTVSPropertyOp13
 70
     1
102
RTVSPropertyOp14
 70
     1
102
RTVSPropertyOp15
 70
     1
102
RTVSPropertyOp16
 70
     1
102
RTVSPropertyOp17
 70
     1
102
RTVSPropertyOp18
 70
     1
102
RTVSPropertyOp19
 70
     1
102
RTVSPropertyOp20
 70
     1
102
RTVSPropertyOp21
 70
     1
102
RTVSPropertyOp22
 70
     1
102
RTVSPropertyOp23
 70
     1
102
RTVSPropertyOp24
 70
     1
102
RTVSPropertyOp25
 70
     1
102
RTVSPropertyOp26
 70
     1
102
RTVSPropertyOp27
 70
     1
102
RTVSPropertyOp28
 70
     1
102
RTVSPropertyOp29
 70
     1
102
RTVSPropertyOp30
 70
     1
102
RTVSPropertyOp31
 70
     1
102
RTVSPropertyOp32
 70
     1
  0
XRECORD
  5
4A9
102
{ACAD_REACTORS
330
4A8
102
}
330
4A8
100
AcDbXrecord
280
     1
102
RTVSPropertyOp0
 70
     1
102
RTVSPropertyOp1
 70
     1
102
RTVSPropertyOp2
 70
     1
102
RTVSPropertyOp3
 70
     1
102
RTVSPropertyOp4
 70
     1
102
RTVSPropertyOp5
 70
     1
102
RTVSPropertyOp6
 70
     1
102
RTVSPropertyOp7
 70
     1
102
RTVSPropertyOp8
 70
     1
102
RTVSPropertyOp9
 70
     1
102
RTVSPropertyOp10
 70
     1
102
RTVSPropertyOp11
 70
     1
102
RTVSPropertyOp12
 70
     1
102
RTVSPropertyOp13
 70
     1
102
RTVSPropertyOp14
 70
     1
102
RTVSPropertyOp15
 70
     1
102
RTVSPropertyOp16
 70
     1
102
RTVSPropertyOp17
 70
     1
102
RTVSPropertyOp18
 70
     1
102
RTVSPropertyOp19
 70
     1
102
RTVSPropertyOp20
 70
     1
102
RTVSPropertyOp21
 70
     1
102
RTVSPropertyOp22
 70
     1
102
RTVSPropertyOp23
 70
     1
102
RTVSPropertyOp24
 70
     1
102
RTVSPropertyOp25
 70
     1
102
RTVSPropertyOp26
 70
     1
102
RTVSPropertyOp27
 70
     1
102
RTVSPropertyOp28
 70
     1
102
RTVSPropertyOp29
 70
     1
102
RTVSPropertyOp30
 70
     1
102
RTVSPropertyOp31
 70
     1
102
RTVSPropertyOp32
 70
     1
  0
XRECORD
  5
4B1
102
{ACAD_REACTORS
330
4B0
102
}
330
4B0
100
AcDbXrecord
280
     1
102
RTVSPropertyOp0
 70
     1
102
RTVSPropertyOp1
 70
     1
102
RTVSPropertyOp2
 70
     1
102
RTVSPropertyOp3
 70
     1
102
RTVSPropertyOp4
 70
     1
102
RTVSPropertyOp5
 70
     1
102
RTVSPropertyOp6
 70
     1
102
RTVSPropertyOp7
 70
     1
102
RTVSPropertyOp8
 70
     1
102
RTVSPropertyOp9
 70
     1
102
RTVSPropertyOp10
 70
     1
102
RTVSPropertyOp11
 70
     1
102
RTVSPropertyOp12
 70
     1
102
RTVSPropertyOp13
 70
     1
102
RTVSPropertyOp14
 70
     1
102
RTVSPropertyOp15
 70
     1
102
RTVSPropertyOp16
 70
     1
102
RTVSPropertyOp17
 70
     1
102
RTVSPropertyOp18
 70
     1
102
RTVSPropertyOp19
 70
     1
102
RTVSPropertyOp20
 70
     1
102
RTVSPropertyOp21
 70
     1
102
RTVSPropertyOp22
 70
     1
102
RTVSPropertyOp23
 70
     1
102
RTVSPropertyOp24
 70
     1
102
RTVSPropertyOp25
 70
     1
102
RTVSPropertyOp26
 70
     1
102
RTVSPropertyOp27
 70
     1
102
RTVSPropertyOp28
 70
     1
102
RTVSPropertyOp29
 70
     1
102
RTVSPropertyOp30
 70
     1
102
RTVSPropertyOp31
 70
     1
102
RTVSPropertyOp32
 70
     1
  0
XRECORD
  5
4A5
102
{ACAD_REACTORS
330
4A4
102
}
330
4A4
100
AcDbXrecord
280
     1
102
RTVSPropertyOp0
 70
     1
102
RTVSPropertyOp1
 70
     1
102
RTVSPropertyOp2
 70
     1
102
RTVSPropertyOp3
 70
     1
102
RTVSPropertyOp4
 70
     1
102
RTVSPropertyOp5
 70
     1
102
RTVSPropertyOp6
 70
     1
102
RTVSPropertyOp7
 70
     1
102
RTVSPropertyOp8
 70
     1
102
RTVSPropertyOp9
 70
     1
102
RTVSPropertyOp10
 70
     1
102
RTVSPropertyOp11
 70
     1
102
RTVSPropertyOp12
 70
     1
102
RTVSPropertyOp13
 70
     1
102
RTVSPropertyOp14
 70
     1
102
RTVSPropertyOp15
 70
     1
102
RTVSPropertyOp16
 70
     1
102
RTVSPropertyOp17
 70
     1
102
RTVSPropertyOp18
 70
     1
102
RTVSPropertyOp19
 70
     1
102
RTVSPropertyOp20
 70
     1
102
RTVSPropertyOp21
 70
     1
102
RTVSPropertyOp22
 70
     1
102
RTVSPropertyOp23
 70
     1
102
RTVSPropertyOp24
 70
     1
102
RTVSPropertyOp25
 70
     1
102
RTVSPropertyOp26
 70
     1
102
RTVSPropertyOp27
 70
     1
102
RTVSPropertyOp28
 70
     1
102
RTVSPropertyOp29
 70
     1
102
RTVSPropertyOp30
 70
     1
102
RTVSPropertyOp31
 70
     1
102
RTVSPropertyOp32
 70
     1
  0
XRECORD
  5
4A7
102
{ACAD_REACTORS
330
4A6
102
}
330
4A6
100
AcDbXrecord
280
     1
102
RTVSPropertyOp0
 70
     1
102
RTVSPropertyOp1
 70
     1
102
RTVSPropertyOp2
 70
     1
102
RTVSPropertyOp3
 70
     1
102
RTVSPropertyOp4
 70
     1
102
RTVSPropertyOp5
 70
     1
102
RTVSPropertyOp6
 70
     1
102
RTVSPropertyOp7
 70
     1
102
RTVSPropertyOp8
 70
     1
102
RTVSPropertyOp9
 70
     1
102
RTVSPropertyOp10
 70
     1
102
RTVSPropertyOp11
 70
     1
102
RTVSPropertyOp12
 70
     1
102
RTVSPropertyOp13
 70
     1
102
RTVSPropertyOp14
 70
     1
102
RTVSPropertyOp15
 70
     1
102
RTVSPropertyOp16
 70
     1
102
RTVSPropertyOp17
 70
     1
102
RTVSPropertyOp18
 70
     1
102
RTVSPropertyOp19
 70
     1
102
RTVSPropertyOp20
 70
     1
102
RTVSPropertyOp21
 70
     1
102
RTVSPropertyOp22
 70
     1
102
RTVSPropertyOp23
 70
     1
102
RTVSPropertyOp24
 70
     1
102
RTVSPropertyOp25
 70
     1
102
RTVSPropertyOp26
 70
     1
102
RTVSPropertyOp27
 70
     1
102
RTVSPropertyOp28
 70
     1
102
RTVSPropertyOp29
 70
     1
102
RTVSPropertyOp30
 70
     1
102
RTVSPropertyOp31
 70
     1
102
RTVSPropertyOp32
 70
     1
  0
XRECORD
  5
4AF
102
{ACAD_REACTORS
330
4AE
102
}
330
4AE
100
AcDbXrecord
280
     1
102
RTVSPropertyOp0
 70
     1
102
RTVSPropertyOp1
 70
     1
102
RTVSPropertyOp2
 70
     1
102
RTVSPropertyOp3
 70
     1
102
RTVSPropertyOp4
 70
     1
102
RTVSPropertyOp5
 70
     1
102
RTVSPropertyOp6
 70
     1
102
RTVSPropertyOp7
 70
     1
102
RTVSPropertyOp8
 70
     1
102
RTVSPropertyOp9
 70
     1
102
RTVSPropertyOp10
 70
     1
102
RTVSPropertyOp11
 70
     1
102
RTVSPropertyOp12
 70
     1
102
RTVSPropertyOp13
 70
     1
102
RTVSPropertyOp14
 70
     1
102
RTVSPropertyOp15
 70
     1
102
RTVSPropertyOp16
 70
     1
102
RTVSPropertyOp17
 70
     1
102
RTVSPropertyOp18
 70
     1
102
RTVSPropertyOp19
 70
     1
102
RTVSPropertyOp20
 70
     1
102
RTVSPropertyOp21
 70
     1
102
RTVSPropertyOp22
 70
     1
102
RTVSPropertyOp23
 70
     1
102
RTVSPropertyOp24
 70
     1
102
RTVSPropertyOp25
 70
     1
102
RTVSPropertyOp26
 70
     1
102
RTVSPropertyOp27
 70
     1
102
RTVSPropertyOp28
 70
     1
102
RTVSPropertyOp29
 70
     1
102
RTVSPropertyOp30
 70
     1
102
RTVSPropertyOp31
 70
     1
102
RTVSPropertyOp32
 70
     1
  0
XRECORD
  5
493
102
{ACAD_REACTORS
330
492
102
}
330
492
100
AcDbXrecord
280
     1
102
RTVSPropertyOp0
 70
     1
102
RTVSPropertyOp1
 70
     1
102
RTVSPropertyOp2
 70
     1
102
RTVSPropertyOp3
 70
     1
102
RTVSPropertyOp4
 70
     1
102
RTVSPropertyOp5
 70
     1
102
RTVSPropertyOp6
 70
     1
102
RTVSPropertyOp7
 70
     1
102
RTVSPropertyOp8
 70
     1
102
RTVSPropertyOp9
 70
     1
102
RTVSPropertyOp10
 70
     1
102
RTVSPropertyOp11
 70
     1
102
RTVSPropertyOp12
 70
     1
102
RTVSPropertyOp13
 70
     1
102
RTVSPropertyOp14
 70
     1
102
RTVSPropertyOp15
 70
     1
102
RTVSPropertyOp16
 70
     1
102
RTVSPropertyOp17
 70
     1
102
RTVSPropertyOp18
 70
     1
102
RTVSPropertyOp19
 70
     1
102
RTVSPropertyOp20
 70
     1
102
RTVSPropertyOp21
 70
     1
102
RTVSPropertyOp22
 70
     1
102
RTVSPropertyOp23
 70
     1
102
RTVSPropertyOp24
 70
     1
102
RTVSPropertyOp25
 70
     1
102
RTVSPropertyOp26
 70
     1
102
RTVSPropertyOp27
 70
     1
102
RTVSPropertyOp28
 70
     1
102
RTVSPropertyOp29
 70
     1
102
RTVSPropertyOp30
 70
     1
102
RTVSPropertyOp31
 70
     1
102
RTVSPropertyOp32
 70
     1
  0
XRECORD
  5
495
102
{ACAD_REACTORS
330
494
102
}
330
494
100
AcDbXrecord
280
     1
102
RTVSPropertyOp0
 70
     1
102
RTVSPropertyOp1
 70
     1
102
RTVSPropertyOp2
 70
     1
102
RTVSPropertyOp3
 70
     1
102
RTVSPropertyOp4
 70
     1
102
RTVSPropertyOp5
 70
     1
102
RTVSPropertyOp6
 70
     1
102
RTVSPropertyOp7
 70
     1
102
RTVSPropertyOp8
 70
     1
102
RTVSPropertyOp9
 70
     1
102
RTVSPropertyOp10
 70
     1
102
RTVSPropertyOp11
 70
     1
102
RTVSPropertyOp12
 70
     1
102
RTVSPropertyOp13
 70
     1
102
RTVSPropertyOp14
 70
     1
102
RTVSPropertyOp15
 70
     1
102
RTVSPropertyOp16
 70
     1
102
RTVSPropertyOp17
 70
     1
102
RTVSPropertyOp18
 70
     1
102
RTVSPropertyOp19
 70
     1
102
RTVSPropertyOp20
 70
     1
102
RTVSPropertyOp21
 70
     1
102
RTVSPropertyOp22
 70
     1
102
RTVSPropertyOp23
 70
     1
102
RTVSPropertyOp24
 70
     1
102
RTVSPropertyOp25
 70
     1
102
RTVSPropertyOp26
 70
     1
102
RTVSPropertyOp27
 70
     1
102
RTVSPropertyOp28
 70
     1
102
RTVSPropertyOp29
 70
     1
102
RTVSPropertyOp30
 70
     1
102
RTVSPropertyOp31
 70
     1
102
RTVSPropertyOp32
 70
     1
  0
XRECORD
  5
497
102
{ACAD_REACTORS
330
496
102
}
330
496
100
AcDbXrecord
280
     1
102
RTVSPropertyOp0
 70
     1
102
RTVSPropertyOp1
 70
     1
102
RTVSPropertyOp2
 70
     1
102
RTVSPropertyOp3
 70
     1
102
RTVSPropertyOp4
 70
     1
102
RTVSPropertyOp5
 70
     1
102
RTVSPropertyOp6
 70
     1
102
RTVSPropertyOp7
 70
     1
102
RTVSPropertyOp8
 70
     1
102
RTVSPropertyOp9
 70
     1
102
RTVSPropertyOp10
 70
     1
102
RTVSPropertyOp11
 70
     1
102
RTVSPropertyOp12
 70
     1
102
RTVSPropertyOp13
 70
     1
102
RTVSPropertyOp14
 70
     1
102
RTVSPropertyOp15
 70
     1
102
RTVSPropertyOp16
 70
     1
102
RTVSPropertyOp17
 70
     1
102
RTVSPropertyOp18
 70
     1
102
RTVSPropertyOp19
 70
     1
102
RTVSPropertyOp20
 70
     1
102
RTVSPropertyOp21
 70
     1
102
RTVSPropertyOp22
 70
     1
102
RTVSPropertyOp23
 70
     1
102
RTVSPropertyOp24
 70
     1
102
RTVSPropertyOp25
 70
     1
102
RTVSPropertyOp26
 70
     1
102
RTVSPropertyOp27
 70
     1
102
RTVSPropertyOp28
 70
     1
102
RTVSPropertyOp29
 70
     1
102
RTVSPropertyOp30
 70
     1
102
RTVSPropertyOp31
 70
     1
102
RTVSPropertyOp32
 70
     1
  0
XRECORD
  5
499
102
{ACAD_REACTORS
330
498
102
}
330
498
100
AcDbXrecord
280
     1
102
RTVSPropertyOp0
 70
     1
102
RTVSPropertyOp1
 70
     1
102
RTVSPropertyOp2
 70
     1
102
RTVSPropertyOp3
 70
     1
102
RTVSPropertyOp4
 70
     1
102
RTVSPropertyOp5
 70
     1
102
RTVSPropertyOp6
 70
     1
102
RTVSPropertyOp7
 70
     1
102
RTVSPropertyOp8
 70
     1
102
RTVSPropertyOp9
 70
     1
102
RTVSPropertyOp10
 70
     1
102
RTVSPropertyOp11
 70
     1
102
RTVSPropertyOp12
 70
     1
102
RTVSPropertyOp13
 70
     1
102
RTVSPropertyOp14
 70
     1
102
RTVSPropertyOp15
 70
     1
102
RTVSPropertyOp16
 70
     1
102
RTVSPropertyOp17
 70
     1
102
RTVSPropertyOp18
 70
     1
102
RTVSPropertyOp19
 70
     1
102
RTVSPropertyOp20
 70
     1
102
RTVSPropertyOp21
 70
     1
102
RTVSPropertyOp22
 70
     1
102
RTVSPropertyOp23
 70
     1
102
RTVSPropertyOp24
 70
     1
102
RTVSPropertyOp25
 70
     1
102
RTVSPropertyOp26
 70
     1
102
RTVSPropertyOp27
 70
     1
102
RTVSPropertyOp28
 70
     1
102
RTVSPropertyOp29
 70
     1
102
RTVSPropertyOp30
 70
     1
102
RTVSPropertyOp31
 70
     1
102
RTVSPropertyOp32
 70
     1
  0
XRECORD
  5
4AD
102
{ACAD_REACTORS
330
4AC
102
}
330
4AC
100
AcDbXrecord
280
     1
102
RTVSPropertyOp0
 70
     1
102
RTVSPropertyOp1
 70
     1
102
RTVSPropertyOp2
 70
     1
102
RTVSPropertyOp3
 70
     1
102
RTVSPropertyOp4
 70
     1
102
RTVSPropertyOp5
 70
     1
102
RTVSPropertyOp6
 70
     1
102
RTVSPropertyOp7
 70
     1
102
RTVSPropertyOp8
 70
     1
102
RTVSPropertyOp9
 70
     1
102
RTVSPropertyOp10
 70
     1
102
RTVSPropertyOp11
 70
     1
102
RTVSPropertyOp12
 70
     1
102
RTVSPropertyOp13
 70
     1
102
RTVSPropertyOp14
 70
     1
102
RTVSPropertyOp15
 70
     1
102
RTVSPropertyOp16
 70
     1
102
RTVSPropertyOp17
 70
     1
102
RTVSPropertyOp18
 70
     1
102
RTVSPropertyOp19
 70
     1
102
RTVSPropertyOp20
 70
     1
102
RTVSPropertyOp21
 70
     1
102
RTVSPropertyOp22
 70
     1
102
RTVSPropertyOp23
 70
     1
102
RTVSPropertyOp24
 70
     1
102
RTVSPropertyOp25
 70
     1
102
RTVSPropertyOp26
 70
     1
102
RTVSPropertyOp27
 70
     1
102
RTVSPropertyOp28
 70
     1
102
RTVSPropertyOp29
 70
     1
102
RTVSPropertyOp30
 70
     1
102
RTVSPropertyOp31
 70
     1
102
RTVSPropertyOp32
 70
     1
  0
XRECORD
  5
4A3
102
{ACAD_REACTORS
330
4A2
102
}
330
4A2
100
AcDbXrecord
280
     1
102
RTVSPropertyOp0
 70
     1
102
RTVSPropertyOp1
 70
     1
102
RTVSPropertyOp2
 70
     1
102
RTVSPropertyOp3
 70
     1
102
RTVSPropertyOp4
 70
     1
102
RTVSPropertyOp5
 70
     1
102
RTVSPropertyOp6
 70
     1
102
RTVSPropertyOp7
 70
     1
102
RTVSPropertyOp8
 70
     1
102
RTVSPropertyOp9
 70
     1
102
RTVSPropertyOp10
 70
     1
102
RTVSPropertyOp11
 70
     1
102
RTVSPropertyOp12
 70
     1
102
RTVSPropertyOp13
 70
     1
102
RTVSPropertyOp14
 70
     1
102
RTVSPropertyOp15
 70
     1
102
RTVSPropertyOp16
 70
     1
102
RTVSPropertyOp17
 70
     1
102
RTVSPropertyOp18
 70
     1
102
RTVSPropertyOp19
 70
     1
102
RTVSPropertyOp20
 70
     1
102
RTVSPropertyOp21
 70
     1
102
RTVSPropertyOp22
 70
     1
102
RTVSPropertyOp23
 70
     1
102
RTVSPropertyOp24
 70
     1
102
RTVSPropertyOp25
 70
     1
102
RTVSPropertyOp26
 70
     1
102
RTVSPropertyOp27
 70
     1
102
RTVSPropertyOp28
 70
     1
102
RTVSPropertyOp29
 70
     1
102
RTVSPropertyOp30
 70
     1
102
RTVSPropertyOp31
 70
     1
102
RTVSPropertyOp32
 70
     1
  0
XRECORD
  5
4AB
102
{ACAD_REACTORS
330
4AA
102
}
330
4AA
100
AcDbXrecord
280
     1
102
RTVSPropertyOp0
 70
     1
102
RTVSPropertyOp1
 70
     1
102
RTVSPropertyOp2
 70
     1
102
RTVSPropertyOp3
 70
     1
102
RTVSPropertyOp4
 70
     1
102
RTVSPropertyOp5
 70
     1
102
RTVSPropertyOp6
 70
     1
102
RTVSPropertyOp7
 70
     1
102
RTVSPropertyOp8
 70
     1
102
RTVSPropertyOp9
 70
     1
102
RTVSPropertyOp10
 70
     1
102
RTVSPropertyOp11
 70
     1
102
RTVSPropertyOp12
 70
     1
102
RTVSPropertyOp13
 70
     1
102
RTVSPropertyOp14
 70
     1
102
RTVSPropertyOp15
 70
     1
102
RTVSPropertyOp16
 70
     1
102
RTVSPropertyOp17
 70
     1
102
RTVSPropertyOp18
 70
     1
102
RTVSPropertyOp19
 70
     1
102
RTVSPropertyOp20
 70
     1
102
RTVSPropertyOp21
 70
     1
102
RTVSPropertyOp22
 70
     1
102
RTVSPropertyOp23
 70
     1
102
RTVSPropertyOp24
 70
     1
102
RTVSPropertyOp25
 70
     1
102
RTVSPropertyOp26
 70
     1
102
RTVSPropertyOp27
 70
     1
102
RTVSPropertyOp28
 70
     1
102
RTVSPropertyOp29
 70
     1
102
RTVSPropertyOp30
 70
     1
102
RTVSPropertyOp31
 70
     1
102
RTVSPropertyOp32
 70
     1
  0
ENDSEC
  0
EOF
